  0
SECTION
  2
HEADER
  9
$ACADVER
  1
AC1015
  9
$ACADMAINTVER
 70
    20
  9
$DWGCODEPAGE
  3
ANSI_1252
  9
$INSBASE
 10
0.0
 20
0.0
 30
0.0
  9
$EXTMIN
 10
-0.0024405493707036
 20
-0.0017949225059368
 30
-0.0000000000000053
  9
$EXTMAX
 10
31.50046550225585
 20
23.53466891947439
 30
0.0000000000000099
  9
$LIMMIN
 10
0.0
 20
0.0
  9
$LIMMAX
 10
32.0
 20
21.0
  9
$ORTHOMODE
 70
     0
  9
$REGENMODE
 70
     1
  9
$FILLMODE
 70
     1
  9
$QTEXTMODE
 70
     0
  9
$MIRRTEXT
 70
     1
  9
$LTSCALE
 40
0.5
  9
$ATTMODE
 70
     1
  9
$TEXTSIZE
 40
0.12
  9
$TRACEWID
 40
0.05
  9
$TEXTSTYLE
  7
STANDARD
  9
$CLAYER
  8
TEXT
  9
$CELTYPE
  6
ByLayer
  9
$CECOLOR
 62
   256
  9
$CELTSCALE
 40
1.0
  9
$DISPSILH
 70
     0
  9
$DIMSCALE
 40
1.0
  9
$DIMASZ
 40
0.125
  9
$DIMEXO
 40
0.0625
  9
$DIMDLI
 40
0.38
  9
$DIMRND
 40
0.0
  9
$DIMDLE
 40
0.0
  9
$DIMEXE
 40
0.125
  9
$DIMTP
 40
0.0
  9
$DIMTM
 40
0.0
  9
$DIMTXT
 40
0.125
  9
$DIMCEN
 40
0.125
  9
$DIMTSZ
 40
0.0
  9
$DIMTOL
 70
     0
  9
$DIMLIM
 70
     0
  9
$DIMTIH
 70
     1
  9
$DIMTOH
 70
     1
  9
$DIMSE1
 70
     0
  9
$DIMSE2
 70
     0
  9
$DIMTAD
 70
     0
  9
$DIMZIN
 70
     0
  9
$DIMBLK
  1

  9
$DIMASO
 70
     1
  9
$DIMSHO
 70
     0
  9
$DIMPOST
  1

  9
$DIMAPOST
  1

  9
$DIMALT
 70
     0
  9
$DIMALTD
 70
     2
  9
$DIMALTF
 40
25.4
  9
$DIMLFAC
 40
1.0
  9
$DIMTOFL
 70
     0
  9
$DIMTVP
 40
0.0
  9
$DIMTIX
 70
     1
  9
$DIMSOXD
 70
     0
  9
$DIMSAH
 70
     0
  9
$DIMBLK1
  1

  9
$DIMBLK2
  1

  9
$DIMSTYLE
  2
Standard
  9
$DIMCLRD
 70
     0
  9
$DIMCLRE
 70
     0
  9
$DIMCLRT
 70
     0
  9
$DIMTFAC
 40
1.0
  9
$DIMGAP
 40
0.09
  9
$DIMJUST
 70
     0
  9
$DIMSD1
 70
     0
  9
$DIMSD2
 70
     0
  9
$DIMTOLJ
 70
     1
  9
$DIMTZIN
 70
     0
  9
$DIMALTZ
 70
     0
  9
$DIMALTTZ
 70
     0
  9
$DIMUPT
 70
     0
  9
$DIMDEC
 70
     3
  9
$DIMTDEC
 70
     3
  9
$DIMALTU
 70
     2
  9
$DIMALTTD
 70
     2
  9
$DIMTXSTY
  7
STANDARD
  9
$DIMAUNIT
 70
     0
  9
$DIMADEC
 70
     2
  9
$DIMALTRND
 40
0.0
  9
$DIMAZIN
 70
     0
  9
$DIMDSEP
 70
    46
  9
$DIMATFIT
 70
     3
  9
$DIMFRAC
 70
     0
  9
$DIMLDRBLK
  1

  9
$DIMLUNIT
 70
     2
  9
$DIMLWD
 70
    -2
  9
$DIMLWE
 70
    -2
  9
$DIMTMOVE
 70
     2
  9
$LUNITS
 70
     2
  9
$LUPREC
 70
     3
  9
$SKETCHINC
 40
0.1
  9
$FILLETRAD
 40
0.0
  9
$AUNITS
 70
     0
  9
$AUPREC
 70
     2
  9
$MENU
  1
acad
  9
$ELEVATION
 40
0.0
  9
$PELEVATION
 40
0.0
  9
$THICKNESS
 40
0.0
  9
$LIMCHECK
 70
     0
  9
$CHAMFERA
 40
0.0
  9
$CHAMFERB
 40
0.0
  9
$CHAMFERC
 40
0.0
  9
$CHAMFERD
 40
0.0
  9
$SKPOLY
 70
     0
  9
$TDCREATE
 40
2448978.529920139
  9
$TDUCREATE
 40
2448978.738253472
  9
$TDUPDATE
 40
2454840.360791505
  9
$TDUUPDATE
 40
2454840.569124838
  9
$TDINDWG
 40
0.7497636343
  9
$TDUSRTIMER
 40
0.7497636343
  9
$USRTIMER
 70
     1
  9
$ANGBASE
 50
0.0
  9
$ANGDIR
 70
     0
  9
$PDMODE
 70
     0
  9
$PDSIZE
 40
0.0
  9
$PLINEWID
 40
0.0
  9
$SPLFRAME
 70
     0
  9
$SPLINETYPE
 70
     6
  9
$SPLINESEGS
 70
     8
  9
$HANDSEED
  5
834
  9
$SURFTAB1
 70
     6
  9
$SURFTAB2
 70
     6
  9
$SURFTYPE
 70
     6
  9
$SURFU
 70
     6
  9
$SURFV
 70
     6
  9
$UCSBASE
  2

  9
$UCSNAME
  2

  9
$UCSORG
 10
0.0
 20
0.0
 30
0.0
  9
$UCSXDIR
 10
1.0
 20
0.0
 30
0.0
  9
$UCSYDIR
 10
0.0
 20
1.0
 30
0.0
  9
$UCSORTHOREF
  2

  9
$UCSORTHOVIEW
 70
     0
  9
$UCSORGTOP
 10
0.0
 20
0.0
 30
0.0
  9
$UCSORGBOTTOM
 10
0.0
 20
0.0
 30
0.0
  9
$UCSORGLEFT
 10
0.0
 20
0.0
 30
0.0
  9
$UCSORGRIGHT
 10
0.0
 20
0.0
 30
0.0
  9
$UCSORGFRONT
 10
0.0
 20
0.0
 30
0.0
  9
$UCSORGBACK
 10
0.0
 20
0.0
 30
0.0
  9
$PUCSBASE
  2

  9
$PUCSNAME
  2

  9
$PUCSORG
 10
0.0
 20
0.0
 30
0.0
  9
$PUCSXDIR
 10
1.0
 20
0.0
 30
0.0
  9
$PUCSYDIR
 10
0.0
 20
1.0
 30
0.0
  9
$PUCSORTHOREF
  2

  9
$PUCSORTHOVIEW
 70
     0
  9
$PUCSORGTOP
 10
0.0
 20
0.0
 30
0.0
  9
$PUCSORGBOTTOM
 10
0.0
 20
0.0
 30
0.0
  9
$PUCSORGLEFT
 10
0.0
 20
0.0
 30
0.0
  9
$PUCSORGRIGHT
 10
0.0
 20
0.0
 30
0.0
  9
$PUCSORGFRONT
 10
0.0
 20
0.0
 30
0.0
  9
$PUCSORGBACK
 10
0.0
 20
0.0
 30
0.0
  9
$USERI1
 70
     0
  9
$USERI2
 70
     0
  9
$USERI3
 70
     0
  9
$USERI4
 70
     0
  9
$USERI5
 70
     0
  9
$USERR1
 40
0.0
  9
$USERR2
 40
0.0
  9
$USERR3
 40
0.0
  9
$USERR4
 40
0.0
  9
$USERR5
 40
0.0
  9
$WORLDVIEW
 70
     1
  9
$SHADEDGE
 70
     3
  9
$SHADEDIF
 70
    70
  9
$TILEMODE
 70
     1
  9
$MAXACTVP
 70
    64
  9
$PINSBASE
 10
0.0
 20
0.0
 30
0.0
  9
$PLIMCHECK
 70
     0
  9
$PEXTMIN
 10
1.000000000000000E+20
 20
1.000000000000000E+20
 30
1.000000000000000E+20
  9
$PEXTMAX
 10
-1.000000000000000E+20
 20
-1.000000000000000E+20
 30
-1.000000000000000E+20
  9
$PLIMMIN
 10
0.0
 20
0.0
  9
$PLIMMAX
 10
12.0
 20
9.0
  9
$UNITMODE
 70
     0
  9
$VISRETAIN
 70
     1
  9
$PLINEGEN
 70
     0
  9
$PSLTSCALE
 70
     0
  9
$TREEDEPTH
 70
  3020
  9
$CMLSTYLE
  2
Standard
  9
$CMLJUST
 70
     0
  9
$CMLSCALE
 40
1.0
  9
$PROXYGRAPHICS
 70
     1
  9
$MEASUREMENT
 70
     0
  9
$CELWEIGHT
370
    -1
  9
$ENDCAPS
280
     0
  9
$JOINSTYLE
280
     0
  9
$LWDISPLAY
290
     0
  9
$INSUNITS
 70
     0
  9
$HYPERLINKBASE
  1

  9
$STYLESHEET
  1
monochrome.ctb
  9
$XEDIT
290
     1
  9
$CEPSNTYPE
380
     0
  9
$PSTYLEMODE
290
     1
  9
$FINGERPRINTGUID
  2
{6347F122-D9DC-11D6-92E8-0050DA6EE29E}
  9
$VERSIONGUID
  2
{727FEC49-2E62-4AD5-A3CC-5C4F8217C74E}
  9
$EXTNAMES
290
     1
  9
$PSVPSCALE
 40
0.0
  9
$OLESTARTUP
290
     0
  0
ENDSEC
  0
SECTION
  2
CLASSES
  0
CLASS
  1
ACDBDICTIONARYWDFLT
  2
AcDbDictionaryWithDefault
  3
ObjectDBX Classes
 90
        0
280
     0
281
     0
  0
CLASS
  1
ACDBPLACEHOLDER
  2
AcDbPlaceHolder
  3
ObjectDBX Classes
 90
        0
280
     0
281
     0
  0
CLASS
  1
LAYOUT
  2
AcDbLayout
  3
ObjectDBX Classes
 90
        0
280
     0
281
     0
  0
CLASS
  1
DICTIONARYVAR
  2
AcDbDictionaryVar
  3
ObjectDBX Classes
 90
        0
280
     0
281
     0
  0
CLASS
  1
TABLESTYLE
  2
AcDbTableStyle
  3
ObjectDBX Classes
 90
     4095
280
     0
281
     0
  0
CLASS
  1
MATERIAL
  2
AcDbMaterial
  3
ObjectDBX Classes
 90
     1153
280
     0
281
     0
  0
CLASS
  1
VISUALSTYLE
  2
AcDbVisualStyle
  3
ObjectDBX Classes
 90
     4095
280
     0
281
     0
  0
CLASS
  1
SCALE
  2
AcDbScale
  3
ObjectDBX Classes
 90
     1153
280
     0
281
     0
  0
CLASS
  1
MLEADERSTYLE
  2
AcDbMLeaderStyle
  3
ACDB_MLEADERSTYLE_CLASS
 90
     4095
280
     0
281
     0
  0
CLASS
  1
CELLSTYLEMAP
  2
AcDbCellStyleMap
  3
ObjectDBX Classes
 90
     1152
280
     0
281
     0
  0
CLASS
  1
SORTENTSTABLE
  2
AcDbSortentsTable
  3
ObjectDBX Classes
 90
        0
280
     0
281
     0
  0
ENDSEC
  0
SECTION
  2
TABLES
  0
TABLE
  2
VPORT
  5
8
330
0
100
AcDbSymbolTable
 70
     1
  0
VPORT
  5
78A
330
8
100
AcDbSymbolTableRecord
100
AcDbViewportTableRecord
  2
*Active
 70
     0
 10
0.0
 20
0.0
 11
1.0
 21
1.0
 12
15.74901247644257
 22
11.76643699848423
 13
0.0
 23
0.0
 14
1.0
 24
1.0
 15
0.0
 25
0.0
 16
0.0
 26
0.0
 36
1.0
 17
0.0
 27
0.0
 37
0.0
 40
23.77663184036789
 41
1.82793867120954
 42
50.0
 43
0.0
 44
0.0
 50
0.0
 51
0.0
 71
     0
 72
   100
 73
     1
 74
     0
 75
     0
 76
     0
 77
     0
 78
     0
281
     0
 65
     1
110
0.0
120
0.0
130
0.0
111
1.0
121
0.0
131
0.0
112
0.0
122
1.0
132
0.0
 79
     0
146
0.0
  0
ENDTAB
  0
TABLE
  2
LTYPE
  5
5
330
0
100
AcDbSymbolTable
 70
    19
  0
LTYPE
  5
13
330
5
100
AcDbSymbolTableRecord
100
AcDbLinetypeTableRecord
  2
ByBlock
 70
     0
  3

 72
    65
 73
     0
 40
0.0
  0
LTYPE
  5
14
330
5
100
AcDbSymbolTableRecord
100
AcDbLinetypeTableRecord
  2
ByLayer
 70
     0
  3

 72
    65
 73
     0
 40
0.0
  0
LTYPE
  5
15
330
5
100
AcDbSymbolTableRecord
100
AcDbLinetypeTableRecord
  2
CONTINUOUS
 70
     0
  3
Solid line
 72
    65
 73
     0
 40
0.0
  0
LTYPE
  5
29
330
5
100
AcDbSymbolTableRecord
100
AcDbLinetypeTableRecord
  2
CENTER
 70
     0
  3
____ _ ____ _ ____ _ ____ _ ____ _ ____ _ ____
 72
    65
 73
     4
 40
2.0
 49
1.25
 74
     0
 49
-0.25
 74
     0
 49
0.25
 74
     0
 49
-0.25
 74
     0
  0
LTYPE
  5
2A
330
5
100
AcDbSymbolTableRecord
100
AcDbLinetypeTableRecord
  2
HIDDEN
 70
     0
  3
_ _ _ _ _ _ _ _ _ _ _ _ _ _ _ _ _ _ _ _ _ _ _
 72
    65
 73
     2
 40
0.375
 49
0.25
 74
     0
 49
-0.125
 74
     0
  0
LTYPE
  5
2B
330
5
100
AcDbSymbolTableRecord
100
AcDbLinetypeTableRecord
  2
PHANTOM
 70
     0
  3
_____ _ _ _____ _ _ _____ _ _ _____ _ _ ____
 72
    65
 73
     6
 40
2.5
 49
1.25
 74
     0
 49
-0.25
 74
     0
 49
0.25
 74
     0
 49
-0.25
 74
     0
 49
0.25
 74
     0
 49
-0.25
 74
     0
  0
ENDTAB
  0
TABLE
  2
LAYER
  5
2
330
0
100
AcDbSymbolTable
 70
    20
  0
LAYER
  5
10
102
{ACAD_XDICTIONARY
360
7E6
102
}
330
2
100
AcDbSymbolTableRecord
100
AcDbLayerTableRecord
  2
0
 70
     0
 62
     7
  6
CONTINUOUS
370
    -3
390
F
  0
LAYER
  5
2E
102
{ACAD_XDICTIONARY
360
7E8
102
}
330
2
100
AcDbSymbolTableRecord
100
AcDbLayerTableRecord
  2
OBJ
 70
     0
 62
     7
  6
CONTINUOUS
370
    -3
390
F
  0
LAYER
  5
2F
102
{ACAD_XDICTIONARY
360
7EA
102
}
330
2
100
AcDbSymbolTableRecord
100
AcDbLayerTableRecord
  2
CEN
 70
     0
 62
     4
  6
CENTER
370
    -3
390
F
  0
LAYER
  5
30
102
{ACAD_XDICTIONARY
360
7EC
102
}
330
2
100
AcDbSymbolTableRecord
100
AcDbLayerTableRecord
  2
HID
 70
     0
 62
     3
  6
HIDDEN
370
    -3
390
F
  0
LAYER
  5
31
102
{ACAD_XDICTIONARY
360
7EE
102
}
330
2
100
AcDbSymbolTableRecord
100
AcDbLayerTableRecord
  2
DIM
 70
     0
 62
     2
  6
CONTINUOUS
370
    -3
390
F
  0
LAYER
  5
32
102
{ACAD_XDICTIONARY
360
7F0
102
}
330
2
100
AcDbSymbolTableRecord
100
AcDbLayerTableRecord
  2
PHAN
 70
     0
 62
     5
  6
PHANTOM
370
    -3
390
F
  0
LAYER
  5
33
330
2
100
AcDbSymbolTableRecord
100
AcDbLayerTableRecord
  2
DEFPOINTS
 70
     0
 62
     7
  6
CONTINUOUS
290
     0
370
    -3
390
F
  0
LAYER
  5
35
102
{ACAD_XDICTIONARY
360
7F4
102
}
330
2
100
AcDbSymbolTableRecord
100
AcDbLayerTableRecord
  2
OBJ2
 70
     0
 62
     4
  6
CONTINUOUS
370
    -3
390
F
  0
LAYER
  5
36
102
{ACAD_XDICTIONARY
360
7F6
102
}
330
2
100
AcDbSymbolTableRecord
100
AcDbLayerTableRecord
  2
DBDR
 70
     0
 62
     9
  6
CONTINUOUS
370
    -3
390
F
  0
LAYER
  5
37
102
{ACAD_XDICTIONARY
360
7F8
102
}
330
2
100
AcDbSymbolTableRecord
100
AcDbLayerTableRecord
  2
OL
 70
     0
 62
     9
  6
CONTINUOUS
370
    -3
390
F
  0
LAYER
  5
D5
102
{ACAD_XDICTIONARY
360
7FA
102
}
330
2
100
AcDbSymbolTableRecord
100
AcDbLayerTableRecord
  2
TEXT
 70
     0
 62
     6
  6
CONTINUOUS
370
    -3
390
F
  0
LAYER
  5
2CB
102
{ACAD_XDICTIONARY
360
804
102
}
330
2
100
AcDbSymbolTableRecord
100
AcDbLayerTableRecord
  2
TITLE
 70
     0
 62
   160
  6
CONTINUOUS
370
    -3
390
F
  0
LAYER
  5
2CC
102
{ACAD_XDICTIONARY
360
806
102
}
330
2
100
AcDbSymbolTableRecord
100
AcDbLayerTableRecord
  2
7
 70
     0
 62
     7
  6
CONTINUOUS
370
    -3
390
F
  0
ENDTAB
  0
TABLE
  2
STYLE
  5
3
330
0
100
AcDbSymbolTable
 70
     6
  0
STYLE
  5
11
330
3
100
AcDbSymbolTableRecord
100
AcDbTextStyleTableRecord
  2
STANDARD
 70
     0
 40
0.0
 41
1.0
 50
0.0
 71
     0
 42
0.12
  3
txt
  4

  0
STYLE
  5
26
330
3
100
AcDbSymbolTableRecord
100
AcDbTextStyleTableRecord
  2
STD
 70
     0
 40
0.075
 41
1.0
 50
0.0
 71
     0
 42
0.075
  3
txt
  4

  0
STYLE
  5
27
330
3
100
AcDbSymbolTableRecord
100
AcDbTextStyleTableRecord
  2
ROMANT
 70
     0
 40
0.12
 41
1.0
 50
0.0
 71
     0
 42
0.12
  3
romant
  4

  0
STYLE
  5
28
330
3
100
AcDbSymbolTableRecord
100
AcDbTextStyleTableRecord
  2
SCRIPTS
 70
     0
 40
0.3
 41
1.0
 50
0.0
 71
     0
 42
0.3
  3
scripts
  4

  0
ENDTAB
  0
TABLE
  2
VIEW
  5
6
330
0
100
AcDbSymbolTable
 70
     0
  0
ENDTAB
  0
TABLE
  2
UCS
  5
7
330
0
100
AcDbSymbolTable
 70
     0
  0
ENDTAB
  0
TABLE
  2
APPID
  5
9
330
0
100
AcDbSymbolTable
 70
     5
  0
APPID
  5
12
330
9
100
AcDbSymbolTableRecord
100
AcDbRegAppTableRecord
  2
ACAD
 70
     0
  0
APPID
  5
6B1
330
9
100
AcDbSymbolTableRecord
100
AcDbRegAppTableRecord
  2
DCO15
 70
     0
  0
APPID
  5
73F
330
9
100
AcDbSymbolTableRecord
100
AcDbRegAppTableRecord
  2
ACAD_PSEXT
 70
     0
  0
APPID
  5
7E0
330
9
100
AcDbSymbolTableRecord
100
AcDbRegAppTableRecord
  2
ACAD_MLEADERVER
 70
     0
  0
APPID
  5
819
330
9
100
AcDbSymbolTableRecord
100
AcDbRegAppTableRecord
  2
ACAD_EXEMPT_FROM_CAD_STANDARDS
 70
     0
  0
ENDTAB
  0
TABLE
  2
DIMSTYLE
  5
A
330
0
100
AcDbSymbolTable
 70
     1
100
AcDbDimStyleTable
 71
     1
340
D2
  0
DIMSTYLE
105
D2
102
{ACAD_REACTORS
330
462
330
5C5
330
624
102
}
330
A
100
AcDbSymbolTableRecord
100
AcDbDimStyleTableRecord
  2
Standard
 70
     0
340
11
  0
ENDTAB
  0
TABLE
  2
BLOCK_RECORD
  5
1
330
0
100
AcDbSymbolTable
 70
    23
  0
BLOCK_RECORD
  5
1E
330
1
100
AcDbSymbolTableRecord
100
AcDbBlockTableRecord
  2
*Model_Space
340
21
  0
BLOCK_RECORD
  5
1A
330
1
100
AcDbSymbolTableRecord
100
AcDbBlockTableRecord
  2
*Paper_Space
340
1D
  0
BLOCK_RECORD
  5
282
330
1
100
AcDbSymbolTableRecord
100
AcDbBlockTableRecord
  2
ASLOGO
340
0
102
{BLKREFS
331
3A8
331
4EC
102
}
  0
BLOCK_RECORD
  5
574
330
1
100
AcDbSymbolTableRecord
100
AcDbBlockTableRecord
  2
*D20
340
0
  0
BLOCK_RECORD
  5
625
330
1
100
AcDbSymbolTableRecord
100
AcDbBlockTableRecord
  2
*D21
340
0
  0
BLOCK_RECORD
  5
81A
102
{ACAD_XDICTIONARY
360
81C
102
}
330
1
100
AcDbSymbolTableRecord
100
AcDbBlockTableRecord
  2
Full Scale Note
340
0
102
{BLKREFS
331
821
102
}
  0
ENDTAB
  0
ENDSEC
  0
SECTION
  2
BLOCKS
  0
BLOCK
  5
3A
330
1E
100
AcDbEntity
  8
0
100
AcDbBlockBegin
  2
*Model_Space
 70
     0
 10
0.0
 20
0.0
 30
0.0
  3
*Model_Space
  1

  0
ENDBLK
  5
3B
330
1E
100
AcDbEntity
  8
0
100
AcDbBlockEnd
  0
BLOCK
  5
38
330
1A
100
AcDbEntity
 67
     1
  8
0
100
AcDbBlockBegin
  2
*Paper_Space
 70
     0
 10
0.0
 20
0.0
 30
0.0
  3
*Paper_Space
  1

  0
ENDBLK
  5
39
330
1A
100
AcDbEntity
 67
     1
  8
0
100
AcDbBlockEnd
  0
BLOCK
  5
293
330
282
100
AcDbEntity
  8
0
100
AcDbBlockBegin
  2
ASLOGO
 70
     0
 10
0.0
 20
0.0
 30
0.0
  3
ASLOGO
  1

  0
LWPOLYLINE
  5
283
102
{ACAD_REACTORS
330
2D5
102
}
330
282
100
AcDbEntity
  8
DIM
 62
     7
100
AcDbPolyline
 90
      304
 70
     1
 43
0.0
 10
0.1262917775610504
 20
0.3657347121208865
 10
0.1367228997683298
 20
0.358170606787354
 10
0.1499341822911475
 20
0.3506035654829684
 10
0.151736947246242
 20
0.3499821650350441
 10
0.1548285554715889
 20
0.3492554886414698
 10
0.1590092579364253
 20
0.348445904241597
 10
0.164089304908245
 20
0.3475756613076388
 10
0.1698789466545421
 20
0.34666700931181
 10
0.1761783156774186
 20
0.3457323168952051
 10
0.1827976622443614
 20
0.3447938335300407
 10
0.1895371188574728
 20
0.34386392785742
 10
0.1962170535496455
 20
0.3429747301806643
 10
0.2026277179918594
 20
0.3421487269062684
 10
0.2085891248155818
 20
0.3413880504427968
 10
0.2138916441589416
 20
0.3407251864950016
 10
0.2183654064187976
 20
0.3401721483025533
 10
0.2217906639678802
 20
0.3397515407390941
 10
0.22398766637194
 20
0.3394854948096935
 10
0.2247666638984711
 20
0.339396259986561
 10
0.2231521343107374
 20
0.3373352422257625
 10
0.2185824360160353
 20
0.3314789671728455
 10
0.2114540573390471
 20
0.3223727760131201
 10
0.2021527765033397
 20
0.3105021326095283
 10
0.1910949619629321
 20
0.2964021419148484
 10
0.178666747342838
 20
0.2805882656867755
 10
0.165264147099144
 20
0.2635658479176186
 10
0.1512932934533566
 20
0.2458501134307838
 10
0.1371404384976032
 20
0.2279665232822303
 10
0.1232117144533902
 20
0.2104303022953662
 10
0.1099032542439531
 20
0.1937567937607536
 10
0.0976210716236494
 20
0.1784512232035489
 10
0.0867415378535128
 20
0.165049169445096
 10
0.0776805475189946
 20
0.15404574024517
 10
0.0708344704776351
 20
0.1459762774908224
 10
0.0665892034201434
 20
0.1413362443432522
 10
0.0635416236277777
 20
0.1381821268106975
 10
0.0600744767685342
 20
0.1342229232725582
 10
0.0563291746236487
 20
0.1295769667678623
 10
0.0524368927418237
 20
0.1243427102062853
 10
0.0485489237354102
 20
0.1186283688614615
 10
0.0448065609185093
 20
0.1125422764741675
 10
0.041351216072357
 20
0.1062027660834364
 10
0.0383239455767708
 20
0.0996981728335449
 10
0.0358560434475948
 20
0.0931369489324112
 10
0.0341090385297136
 20
0.0866471897830366
 10
0.0332139879046878
 20
0.0803173489968359
 10
0.0333021855883686
 20
0.0742558787817327
 10
0.0345349234913641
 20
0.0685708759442179
 10
0.0370434956295043
 20
0.0633707926922167
 10
0.0409691953168903
 20
0.0587639627665055
 10
0.0464533158676375
 20
0.0548587199078678
 10
0.0505792127466478
 20
0.0527996970950433
 10
0.0550582836773401
 20
0.05100650898504
 10
0.0598006534425721
 20
0.0494902210803936
 10
0.0647364454217296
 20
0.0482616619493523
 10
0.0697757843976916
 20
0.0473318970944501
 10
0.0748487937498226
 20
0.0467117550839404
 10
0.0798755975592513
 20
0.0464121829532118
 10
0.0847664390759917
 20
0.046454245503055
 10
0.0894512047451457
 20
0.0468287727052079
 10
0.0938501371149698
 20
0.047556710893323
 10
0.0978834787337348
 20
0.0486590064010404
 10
0.1014711167482787
 20
0.0501266076672504
 10
0.1045234128757642
 20
0.0519905787909885
 10
0.1069703720284281
 20
0.0542517490422547
 10
0.108741999118493
 20
0.0569109476910459
 10
0.109738656564879
 20
0.0599993573035445
 10
0.1131565367291643
 20
0.0699295635039476
 10
0.120279059100767
 20
0.0836061447677779
 10
0.1306195047364369
 20
0.1004648275174986
 10
0.1436910362258175
 20
0.1199313388773202
 10
0.1589969353274299
 20
0.1414415237368516
 10
0.1760501276966195
 20
0.164401110623805
 10
0.1943640128572923
 20
0.1882558252588922
 10
0.2134416356336999
 20
0.2124215139352206
 10
0.232806276380856
 20
0.2363337846081137
 10
0.2519610983901401
 20
0.2594184828689219
 10
0.2704192642511813
 20
0.2811013358418659
 10
0.287693936553616
 20
0.3008080706511524
 10
0.3032882785888162
 20
0.3179645328881389
 10
0.3167254522446683
 20
0.3319963312098988
 10
0.3274987399814364
 20
0.3423394289731778
 10
0.3351311852198648
 20
0.3484094355367979
 10
0.3370134226341293
 20
0.3485871496790516
 10
0.3423396834642673
 20
0.3490840858613655
 10
0.3506194097602204
 20
0.3498560524824619
 10
0.3613519258065239
 20
0.3508489771099512
 10
0.3740469105873885
 20
0.3520386667390571
 10
0.3882235685167146
 20
0.3533608127048584
 10
0.4033813423461794
 20
0.3547713418732172
 10
0.4190397918911089
 20
0.3562359434739637
 10
0.4346881236706395
 20
0.3576906642436004
 10
0.4498458975001114
 20
0.3591011934119592
 10
0.4640226738965794
 20
0.3604333386760121
 10
0.4767175402103021
 20
0.3616130290068682
 10
0.4874501747237474
 20
0.3626159529326092
 10
0.4957299010197005
 20
0.3633879195537055
 10
0.5010561618498386
 20
0.3638848557360195
 10
0.5029383992640959
 20
0.3640625698782731
 10
0.5023853353639467
 20
0.3621189854776503
 10
0.5008301645288569
 20
0.3566270237449274
 10
0.4984090379275159
 20
0.3481051081163695
 10
0.4952677506254375
 20
0.3370415456663345
 10
0.491542572258453
 20
0.3239647591293409
 10
0.487399178021434
 20
0.3093528193472093
 10
0.4829638382519619
 20
0.2937342675215948
 10
0.4783825849498414
 20
0.2776174093233674
 10
0.4738012131805718
 20
0.2614905518268884
 10
0.4693558741128499
 20
0.2458721184684176
 10
0.4652125983429727
 20
0.2312701779845376
 10
0.4614973008071033
 20
0.218183273682147
 10
0.4583561319721668
 20
0.2071297105303671
 10
0.4559248876054341
 20
0.1985979140706959
 10
0.4543698352374861
 20
0.1931159516362264
 10
0.4538167713373298
 20
0.1911723672356018
 10
0.4451181116542316
 20
0.1972458439761269
 10
0.4365607933435172
 20
0.2025875949371034
 10
0.4282248107911997
 20
0.2071966723813947
 10
0.420220037810914
 20
0.2110617738721761
 10
0.4126064701921664
 20
0.214182188606598
 10
0.4054939817485917
 20
0.2165466141478376
 10
0.3989526860351091
 20
0.2181642205241516
 10
0.3930724582688256
 20
0.2190239422330027
 10
0.3879531729651404
 20
0.2191145953047187
 10
0.3836648252117953
 20
0.2184353504692975
 10
0.3802972902259398
 20
0.2169751422242072
 10
0.3779506794572285
 20
0.2147427851962718
 10
0.3766948695262897
 20
0.2117274508172446
 10
0.3766297349484944
 20
0.2079179551174466
 10
0.3778352701098626
 20
0.2033133503597391
 10
0.3803914693964145
 20
0.1979126888069835
 10
0.3858999528344782
 20
0.1884667685123507
 10
0.3906013586761219
 20
0.1809605455532157
 10
0.3946110582817965
 20
0.1750026256920361
 10
0.3980347791151502
 20
0.170231731053164
 10
0.4009578946419055
 20
0.1662568228004826
 10
0.4034958946896694
 20
0.1626965059946972
 10
0.4057543882549482
 20
0.1591795034619121
 10
0.4078287481016929
 20
0.1553146578988613
 10
0.4098245832264098
 20
0.1507306921316545
 10
0.4118473841584632
 20
0.1450463296881352
 10
0.4139925236618183
 20
0.1378704132650466
 10
0.4163857277966159
 20
0.1288414280524552
 10
0.4191022522631798
 20
0.1175584543831381
 10
0.4222578238234008
 20
0.1036600959143001
 10
0.4259678138377581
 20
0.0867549584084007
 10
0.4303078334079942
 20
0.0664721200929677
 10
0.4334716909539367
 20
0.061714304898052
 10
0.4381670996724623
 20
0.0570783544058653
 10
0.4441259739850381
 20
0.0527274560012892
 10
0.4511099892736042
 20
0.0488044430712762
 10
0.458840942194243
 20
0.0454626221695964
 10
0.4670706272977796
 20
0.042854944448596
 10
0.4755407213696543
 20
0.041124480229513
 10
0.4840032558949901
 20
0.0404441792611898
 10
0.4921896714266865
 20
0.0409372317355068
 10
0.4998519994498594
 20
0.0427765874013133
 10
0.5067219174516922
 20
0.0461054350469841
 10
0.512551219983024
 20
0.0510767258248635
 10
0.517081702296423
 20
0.057843529354443
 10
0.5200450418790937
 20
0.0665490344240993
 10
0.5212032695143876
 20
0.0773660723155381
 10
0.5202778264569688
 20
0.0904179516877761
 10
0.5188108108122194
 20
0.1024961785898526
 10
0.51796841993594
 20
0.1141169736406038
 10
0.5177937311668544
 20
0.125539844726017
 10
0.5182995870146243
 20
0.137004656537
 10
0.5195289463508317
 20
0.1487609176612903
 10
0.5214947701522874
 20
0.1610584920880491
 10
0.5242401357577009
 20
0.174156887703262
 10
0.5277778856767484
 20
0.1882959691978367
 10
0.5321509787809973
 20
0.2037252451595126
 10
0.5373723760472587
 20
0.2206945795774526
 10
0.5434851548142632
 20
0.2394634803376388
 10
0.5505021575916658
 20
0.2602718121309824
 10
0.558466461718183
 20
0.2833790828434726
 10
0.5673907912363561
 20
0.3090151578677638
 10
0.5773183419520294
 20
0.3374495443881003
 10
0.5882719556731289
 20
0.3689219886282427
 10
0.5895004701030118
 20
0.3704775439295922
 10
0.5919368856799921
 20
0.3718487766364138
 10
0.5954313313974211
 20
0.3730474630540979
 10
0.599803938353908
 20
0.3740857348894568
 10
0.6049048355428042
 20
0.3749753684478847
 10
0.6105639164266848
 20
0.3757083783725488
 10
0.6166114298695576
 20
0.3763067772013766
 10
0.6228973863976251
 20
0.3767723419415088
 10
0.6292519164077462
 20
0.3771170858326158
 10
0.6355051502967797
 20
0.3773530221143737
 10
0.6414970992926854
 20
0.3774820462610613
 10
0.6470678930905791
 20
0.3775160530452144
 10
0.6520576613855625
 20
0.3774669372393582
 10
0.6562864168090954
 20
0.377336831252066
 10
0.6596042883545437
 20
0.3771375113887245
 10
0.6618512872498599
 20
0.3768708731236092
 10
0.681832517142567
 20
0.3743239824752198
 10
0.6986722831363892
 20
0.3742044781932741
 10
0.7125167837565414
 20
0.3761906057265651
 10
0.7235024551642937
 20
0.3799807275875295
 10
0.7317556157554961
 20
0.3852633254575011
 10
0.7374325818207695
 20
0.3917265256163791
 10
0.740649672457721
 20
0.3990589282126393
 10
0.7415532046587217
 20
0.4069487779933248
 10
0.7402796145850204
 20
0.4150944374708701
 10
0.7369751007618462
 20
0.4231741520940773
 10
0.731756219221083
 20
0.4308965206079148
 10
0.7247690500208251
 20
0.4379297891629275
 10
0.7161500293223213
 20
0.4439723202715556
 10
0.7060355932868277
 20
0.4487224764462372
 10
0.694562059608451
 20
0.4518686209011574
 10
0.6818655090470287
 20
0.4530791182539993
 10
0.6810254495267003
 20
0.4530790701957184
 10
0.678645024206972
 20
0.453057268884372
 10
0.6749444545836667
 20
0.4530311066393296
 10
0.6701536060494391
 20
0.4529878594180623
 10
0.6644827008018837
 20
0.4529450380070835
 10
0.658151604935398
 20
0.4528900368310076
 10
0.6513705406475623
 20
0.452840366676341
 10
0.6443792541621534
 20
0.4527731857351612
 10
0.6373882046110211
 20
0.4527260033904899
 10
0.6306170211542935
 20
0.452666215470428
 10
0.6242859252878148
 20
0.4526112142943486
 10
0.6186150200402523
 20
0.4525683928833697
 10
0.6138141722077819
 20
0.4525252641292461
 10
0.6101136025844767
 20
0.4524991018842055
 10
0.6077431765629982
 20
0.4524771821057155
 10
0.6068931177444199
 20
0.4524772525145746
 10
0.6083578176695426
 20
0.4621505794567061
 10
0.6113069121302744
 20
0.4764066427934637
 10
0.6155416478912841
 20
0.4945077453298961
 10
0.6208237483927946
 20
0.5157566609326274
 10
0.6269544603994604
 20
0.5394156924067027
 10
0.6336953888843766
 20
0.5647776143204944
 10
0.6408480175464888
 20
0.5911247280755508
 10
0.6481738328917431
 20
0.6177398089419946
 10
0.6554543200225638
 20
0.6439053952556595
 10
0.6624810818068028
 20
0.6689139061834926
 10
0.6690354848797711
 20
0.6920378807630723
 10
0.6748790157473934
 20
0.7125600942645267
 10
0.6798132765757714
 20
0.7297728473876468
 10
0.6836097531690868
 20
0.7429587969354206
 10
0.6860498121626506
 20
0.7513904819454229
 10
0.6869150571260434
 20
0.7543604400517481
 10
0.6868597519639508
 20
0.755601182305016
 10
0.6866400490378411
 20
0.7590040238564644
 10
0.6861407435126737
 20
0.7641302987215628
 10
0.6852865092792797
 20
0.7705308677489598
 10
0.6839720223337125
 20
0.7777569471887365
 10
0.6820819593737895
 20
0.7853598717581054
 10
0.6795408758231929
 20
0.7928805030074689
 10
0.6762435661451321
 20
0.7998800564851525
 10
0.6720848248028162
 20
0.8059197477394874
 10
0.6669790894545216
 20
0.8105305574897592
 10
0.6608211545634646
 20
0.8132737012842987
 10
0.6535055776585708
 20
0.8136903960749268
 10
0.6449472702666839
 20
0.8113516197739443
 10
0.6350506707478516
 20
0.8057884715677765
 10
0.6237005742670192
 20
0.7965622854718966
 10
0.6108116554167609
 20
0.7832240408020965
 10
0.5863314052044615
 20
0.7554921052486013
 10
0.560585249646401
 20
0.7264250728238757
 10
0.5339783732269368
 20
0.6964581739653113
 10
0.5069059611321763
 20
0.6660267575774502
 10
0.479743199951713
 20
0.6355664094991163
 10
0.452894918768493
 20
0.6054823622729444
 10
0.4267466588717781
 20
0.5762400811653788
 10
0.4016931315791084
 20
0.548234917887946
 10
0.3781197597126322
 20
0.5219223384088317
 10
0.3564214915241592
 20
0.497717693036071
 10
0.3369836313686889
 20
0.476066448439596
 10
0.3202111267962877
 20
0.4573838364603038
 10
0.3064790459294215
 20
0.4420954436387579
 10
0.2961926917195825
 20
0.4306464997106155
 10
0.2897271322892436
 20
0.4234625912164401
 10
0.2874875521227409
 20
0.4209789485936355
 10
0.277634381986914
 20
0.4199256023663427
 10
0.2679655825039049
 20
0.4192400977658206
 10
0.2584609181429158
 20
0.4189026731298445
 10
0.2491399136318861
 20
0.4188730943311203
 10
0.2399922142711333
 20
0.4191214819420335
 10
0.2310272270231977
 20
0.4195977210041839
 10
0.2222348341226805
 20
0.4202919306864601
 10
0.2136143247667306
 20
0.4211441151993487
 10
0.2051654620210712
 20
0.4221342759463429
 10
0.1968877720171136
 20
0.4232224157344398
 10
0.188791017118838
 20
0.4243884174999871
 10
0.1808644872251364
 20
0.4255724039206168
 10
0.1731080638688596
 20
0.4267643756980775
 10
0.1655211547143054
 20
0.4279143363411056
 10
0.158113403658291
 20
0.4289921694878025
 10
0.1508744560011408
 20
0.4299679957105589
 10
0.1451460427740585
 20
0.4301358703657297
 10
0.139165562740402
 20
0.4292866598106003
 10
0.1331338311351899
 20
0.4274879897900803
 10
0.1272817795553749
 20
0.4248171299459145
 10
0.1218302218324965
 20
0.4213414690887323
 10
0.1169799732016017
 20
0.4171286329634452
 10
0.112961965259629
 20
0.4122558912118013
 10
0.1099971303052669
 20
0.4068006319426747
 10
0.1082862835735483
 20
0.4008304809009858
 10
0.1080602381942839
 20
0.3944127084302202
 10
0.1095298087007634
 20
0.3876148218081496
 10
0.1129060465605605
 20
0.3805243269090574
 10
0.1184197649034715
 20
0.373208494076426
  0
LWPOLYLINE
  5
284
102
{ACAD_REACTORS
330
2D6
102
}
330
282
100
AcDbEntity
  8
DIM
 62
     7
100
AcDbPolyline
 90
      320
 70
     1
 43
0.0
 10
1.214817611792859
 20
0.1453737938301352
 10
1.212668893626023
 20
0.2130239964184462
 10
1.207875275646372
 20
0.2093705286595693
 10
1.203354481930944
 20
0.2059538454459009
 10
1.197684527777653
 20
0.201770722222804
 10
1.191038244468209
 20
0.1970591282069129
 10
1.183628223543038
 20
0.1920365601497806
 10
1.175637177114957
 20
0.1869308695026426
 10
1.167247817296782
 20
0.181969907716736
 10
1.158672854096096
 20
0.1773811708418691
 10
1.1500949996257
 20
0.1733925103292755
 10
1.141696729064136
 20
0.1702117790336857
 10
1.133690989353254
 20
0.168086471601411
 10
1.126250374840488
 20
0.1672345586525807
 10
1.119587595533403
 20
0.1678835362369995
 10
1.11386536494831
 20
0.17026149274019
 10
1.109306273923898
 20
0.1745858064465633
 10
1.109414322672108
 20
0.1752645740562873
 10
1.10973752117961
 20
0.1772208824994408
 10
1.110264211608139
 20
0.1803148600676358
 10
1.110982854586602
 20
0.1844166343507361
 10
1.111891791574997
 20
0.1893862151732115
 10
1.112959366138582
 20
0.1950839677609597
 10
1.114194037502755
 20
0.2013797827695587
 10
1.11558414782926
 20
0.2081337884906222
 10
1.117118157746993
 20
0.2152161125140104
 10
1.11877441011947
 20
0.2224870015984823
 10
1.120561364172075
 20
0.2298163463996143
 10
1.122457362768315
 20
0.2370643936761603
 10
1.124450748069939
 20
0.2440912717197339
 10
1.126529980705853
 20
0.2507671081201988
 10
1.128693520603192
 20
0.2569619120002766
 10
1.13092959145657
 20
0.2625258123533261
 10
1.133537650286704
 20
0.2682553174923896
 10
1.136747040559392
 20
0.2749377657022585
 10
1.140476701684342
 20
0.2824841110357976
 10
1.144615575176494
 20
0.2908056629473083
 10
1.149092244342377
 20
0.2997832591277607
 10
1.153795769164062
 20
0.309338208329704
 10
1.158644970584127
 20
0.3193714653077571
 10
1.163528434716077
 20
0.3297643416214626
 10
1.168375337202149
 20
0.3404476714530524
 10
1.173074145688715
 20
0.3512927670638124
 10
1.177534037221519
 20
0.3622306995702633
 10
1.181663714977709
 20
0.3731525428959106
 10
1.185371882134461
 20
0.3839493709642649
 10
1.188557479504957
 20
0.3945323747624822
 10
1.191129447200651
 20
0.404812626810573
 10
1.193006487696969
 20
0.4146810825649059
 10
1.193694133628127
 20
0.4237635735818764
 10
1.192868142632924
 20
0.4317039160729692
 10
1.190718975246724
 20
0.438539856355483
 10
1.187397094811885
 20
0.4443096146152925
 10
1.183082962565507
 20
0.4490510556368382
 10
1.177957039744711
 20
0.4528020442045655
 10
1.172189669821207
 20
0.455590564271807
 10
1.165951314733845
 20
0.4574545990901484
 10
1.15941243642149
 20
0.4584321319111809
 10
1.152753496121242
 20
0.4585610275193446
 10
1.146134838006574
 20
0.4578693883351157
 10
1.13974692261285
 20
0.4563949606757963
 10
1.13374033174955
 20
0.4541859640255126
 10
1.128315406783158
 20
0.4512700269361681
 10
1.123622492588886
 20
0.4476753702953804
 10
1.119842168870974
 20
0.4434498581858471
 10
1.114010641171645
 20
0.4357584028819446
 10
1.10727277940392
 20
0.4275376475152495
 10
1.099820228774589
 20
0.4189253313855819
 10
1.091814636595692
 20
0.4100595491941963
 10
1.083437648775742
 20
0.4010781587080566
 10
1.074861148859326
 20
0.3921391347577767
 10
1.06627666358608
 20
0.3833702173449254
 10
1.057845958735178
 20
0.3749195004690069
 10
1.049740799384039
 20
0.3669349596623785
 10
1.042152830739453
 20
0.3595543342248693
 10
1.035243700113454
 20
0.3529157188577265
 10
1.029195053414575
 20
0.3471569713279159
 10
1.024188773485633
 20
0.3424359479989061
 10
1.020386507638654
 20
0.3388907435719517
 10
1.01797990108043
 20
0.3366590973468693
 10
1.017140600421242
 20
0.3358789855577768
 10
1.01718438856281
 20
0.3361984892332739
 10
1.01731634532323
 20
0.3372069967510338
 10
1.017557180101853
 20
0.3389642669662844
 10
1.017917839934085
 20
0.3415501757978987
 10
1.018418915752128
 20
0.3450144828028527
 10
1.019081235422497
 20
0.349426946134626
 10
1.019915745980576
 20
0.3548674417120949
 10
1.020933039060331
 20
0.3613858475593759
 10
1.022154060995404
 20
0.3690619211282051
 10
1.023589403419769
 20
0.3779455404426955
 10
1.02527013043246
 20
0.3881263437856965
 10
1.027186835070928
 20
0.3996544461156048
 10
1.029380462265336
 20
0.4126093679498731
 10
1.031861603649637
 20
0.4270409873126138
 10
1.03463120696098
 20
0.4430292985898526
 10
1.037719980896973
 20
0.4606339421696664
 10
1.038054526542438
 20
0.4660803611042592
 10
1.03726033615684
 20
0.4716401598084783
 10
1.035405627820793
 20
0.4771625195385383
 10
1.032578736678573
 20
0.4825063839146307
 10
1.028877878705579
 20
0.4875205787915445
 10
1.024371627383843
 20
0.4920842833202581
 10
1.019148080923372
 20
0.4960364425244546
 10
1.013305573766693
 20
0.4992358815571763
 10
1.006912442461569
 20
0.5015417809728949
 10
1.000067021450526
 20
0.5028129659246581
 10
0.9928576458778408
 20
0.5029083800326486
 10
0.9853525338241411
 20
0.50167720455309
 10
0.9776401389008526
 20
0.4989883824044199
 10
0.969818677083353
 20
0.4946907394414311
 10
0.9619664842176547
 20
0.4886433377514515
 10
0.9541718954480487
 20
0.4807051209546689
 10
0.9369885199684517
 20
0.4611073122218734
 10
0.9196772860201463
 20
0.4416910309304694
 10
0.9023900785511855
 20
0.4226144888453547
 10
0.8853186612355017
 20
0.4040254245646047
 10
0.8686246813851283
 20
0.3860619327894703
 10
0.8524800225446327
 20
0.3688819883505641
 10
0.8370665675568318
 20
0.3526434476113547
 10
0.8225358459683533
 20
0.3374745244419852
 10
0.8090797399202784
 20
0.3235329567387826
 10
0.7968501343606676
 20
0.3109769562666429
 10
0.786038556029169
 20
0.2999342630271382
 10
0.7768070076392349
 20
0.2905729696162762
 10
0.7693271358011416
 20
0.2830310522681643
 10
0.7637807048905785
 20
0.2774563680480178
 10
0.760319599855599
 20
0.27400712872074
 10
0.7591254666047434
 20
0.272821192053291
 10
0.7604322688223704
 20
0.2750758689622987
 10
0.7641487800945015
 20
0.281512292189845
 10
0.7699786235461304
 20
0.2915939351774472
 10
0.777635895469075
 20
0.304824150092486
 10
0.7868043388589641
 20
0.3206766466090123
 10
0.7971979315404596
 20
0.3386447775961532
 10
0.8085204151057112
 20
0.3582020157936778
 10
0.8204757680811241
 20
0.3788418325378551
 10
0.8327678505259825
 20
0.400047699866704
 10
0.8450905232013141
 20
0.4213032082853872
 10
0.857157645464639
 20
0.44209171136478
 10
0.8686630780769917
 20
0.4618967996100452
 10
0.8793206803958923
 20
0.4802018265920545
 10
0.8888244316495104
 20
0.4965003821142276
 10
0.8968780734299883
 20
0.5102659389163265
 10
0.9031855842637313
 20
0.5209919683346236
 10
0.9084504433349707
 20
0.5315003344759397
 10
0.9111787753795681
 20
0.5406286532836067
 10
0.911631272954942
 20
0.5484338404014331
 10
0.9100882718135636
 20
0.5549425766441836
 10
0.9068204638111154
 20
0.5602116591885285
 10
0.9020980669346769
 20
0.5642578880181226
 10
0.8961918915070583
 20
0.5671480596078809
 10
0.8893620377499686
 20
0.5688890931103519
 10
0.8818993145827107
 20
0.5695475480661721
 10
0.8740640591612702
 20
0.5691503422243898
 10
0.8661167271087677
 20
0.5677343926323104
 10
0.8583578897084862
 20
0.5653461417669181
 10
0.8510278855199118
 20
0.5620127443115504
 10
0.8444074056969554
 20
0.5577908789757302
 10
0.8387767859921027
 20
0.5527072265742241
 10
0.8344065997938798
 20
0.546808584985449
 10
0.8293847079098313
 20
0.5382374764279199
 10
0.8214639002180561
 20
0.524710362711021
 10
0.8110722030108377
 20
0.5069022204959151
 10
0.7986474049444184
 20
0.4854679093801178
 10
0.7846075330128315
 20
0.4610825244919355
 10
0.7693803765740839
 20
0.4344010438960276
 10
0.7534038427515526
 20
0.406088326488165
 10
0.7370958400721293
 20
0.3768094680984007
 10
0.7208941571920633
 20
0.3472193283242486
 10
0.70522693887078
 20
0.3180028831251285
 10
0.6905218559991227
 20
0.289805111267448
 10
0.6771968171039973
 20
0.2632911085812584
 10
0.6656997286070308
 20
0.2391256154951868
 10
0.6564386182040068
 20
0.2179838456046834
 10
0.6498611553822827
 20
0.2005105407418686
 10
0.6463854856030338
 20
0.1873907953333003
 10
0.645239386317428
 20
0.1809739225413942
 10
0.6439379665366261
 20
0.1741088583352752
 10
0.6425727600177425
 20
0.1669245273879412
 10
0.6412548252458521
 20
0.1595096202450943
 10
0.6400856952763192
 20
0.1519929431125888
 10
0.6391665477630895
 20
0.1444733043015205
 10
0.6385985603601086
 20
0.1370495121229887
 10
0.638473266824505
 20
0.1298504912499858
 10
0.6389017256413255
 20
0.1229649322282142
 10
0.6399854698659553
 20
0.1165216412635299
 10
0.6418156778540834
 20
0.1106195451341705
 10
0.644513644323304
 20
0.1053672145152014
 10
0.6481607852653398
 20
0.1008836932485089
 10
0.6528581598670087
 20
0.0972577903469336
 10
0.6587272997801748
 20
0.0946180750820496
 10
0.6658493840622839
 20
0.0930635926992363
 10
0.6773554257959873
 20
0.0918171964450867
 10
0.6871977450129805
 20
0.0911105477128516
 10
0.6955464482507026
 20
0.0909516318593529
 10
0.7025814044105445
 20
0.0913283171777781
 10
0.7084529583677153
 20
0.0922688245557471
 10
0.7133308612582212
 20
0.0937511414553303
 10
0.7173953373848861
 20
0.0957931340644685
 10
0.7207962577543512
 20
0.0983830260777712
 10
0.7237037289040416
 20
0.1015288028520711
 10
0.7262877389042473
 20
0.1052284504459422
 10
0.7287182758252513
 20
0.1094799549179637
 10
0.731145566075135
 20
0.1143015378575019
 10
0.7337594778535319
 20
0.1196809490905952
 10
0.7367100006342327
 20
0.1256164116101104
 10
0.7401672409546621
 20
0.1321159107728764
 10
0.7443113046505019
 20
0.1391873134685788
 10
0.7491543714868599
 20
0.146170429078289
 10
0.7569449066659218
 20
0.1562988475937281
 10
0.7672067828784109
 20
0.1690581734614778
 10
0.7795142247077678
 20
0.1839634166871686
 10
0.7933913417790138
 20
0.2005201803138892
 10
0.8084120032741424
 20
0.2182134764525063
 10
0.8241104365835667
 20
0.23655878897722
 10
0.8400406307599297
 20
0.2550513662314398
 10
0.8557566933230162
 20
0.2731964558568265
 10
0.8707927331960831
 20
0.2904995424293233
 10
0.8847128571971794
 20
0.3064657551234511
 10
0.8970610550806839
 20
0.3205904607497594
 10
0.9073915528335163
 20
0.3323889062481591
 10
0.9152482217429209
 20
0.3413464591309534
 10
0.9201752884975604
 20
0.3469784848051951
 10
0.9217367414483348
 20
0.3487801131471464
 10
0.9211374720054763
 20
0.3471570986263046
 10
0.9194229751429219
 20
0.3425670876777023
 10
0.9167476236187255
 20
0.3353782773295304
 10
0.9132360292304682
 20
0.3259792186079178
 10
0.9090326839050959
 20
0.3147482263064489
 10
0.9042823165038313
 20
0.3020836138152187
 10
0.899109301889986
 20
0.2883539335638439
 10
0.8936483696265327
 20
0.2739576174095664
 10
0.8880538924715253
 20
0.2592628623805737
 10
0.8824604815207948
 20
0.2446581010358511
 10
0.8769927485719364
 20
0.2305318844015236
 10
0.8718053033172807
 20
0.2172724081022892
 10
0.8670225206201322
 20
0.205248224567768
 10
0.8627891293417206
 20
0.1948576471880532
 10
0.8592496214089848
 20
0.1864789907567328
 10
0.856528490152371
 20
0.1804908070016786
 10
0.8549176106954803
 20
0.1770496491477935
 10
0.8534873109428318
 20
0.1736563553766057
 10
0.8522978236182368
 20
0.1703302134817637
 10
0.8513892643818437
 20
0.167080748892948
 10
0.8508216290231658
 20
0.1639072508073056
 10
0.8506452694348922
 20
0.1608391247838785
 10
0.8509000643428805
 20
0.1578658976558476
 10
0.851636365639834
 20
0.1550169749822547
 10
0.8529140506481098
 20
0.1522816466619954
 10
0.8547734719621473
 20
0.1496894367212516
 10
0.8572647445403589
 20
0.1472497521225655
 10
0.8604477457051018
 20
0.1449518827648308
 10
0.8643629465179714
 20
0.1428353519724848
 10
0.869060106535926
 20
0.1408795688133111
 10
0.8745896961188037
 20
0.139123938144607
 10
0.8810017117578752
 20
0.1375678676306578
 10
0.8872587142448864
 20
0.1364336631175806
 10
0.8930611985008596
 20
0.1357648758126597
 10
0.8984090460586386
 20
0.1355515064176416
 10
0.9033315440101361
 20
0.1357332037415873
 10
0.9078584533158107
 20
0.1362896137865608
 10
0.9120094171707577
 20
0.1371905017235253
 10
0.9157939610046383
 20
0.1383957518923271
 10
0.9192417273107977
 20
0.1398750109967839
 10
0.9223622415189112
 20
0.141588163376742
 10
0.9251951454205666
 20
0.1435047372688771
 10
0.9277502013797231
 20
0.1456046156095407
 10
0.930046815657171
 20
0.1478375649731873
 10
0.9321146307462413
 20
0.1501732320636364
 10
0.9339632905437724
 20
0.1525815005189806
 10
0.9356224375430741
 20
0.1550320170430446
 10
0.9371115964720857
 20
0.1574845475085294
 10
0.9424658345413092
 20
0.1662517326153985
 10
0.9478682216857947
 20
0.1740182770941931
 10
0.9533305342109272
 20
0.1809340519515547
 10
0.9588644299549713
 20
0.1871389288958731
 10
0.9645015653526627
 20
0.1927725427012472
 10
0.9702535982422517
 20
0.1979747650760704
 10
0.9761323049291235
 20
0.2028954670269769
 10
0.9821692233809002
 20
0.2076642840298213
 10
0.9883862476683589
 20
0.2124409679223529
 10
0.9947849178643437
 20
0.2173555095818518
 10
1.001396890403626
 20
0.2225475437824169
 10
1.008233941591576
 20
0.2281669415306933
 10
1.015317728564696
 20
0.2343534560679235
 10
1.022679907757755
 20
0.2412467221682117
 10
1.030312138412476
 20
0.2489868484742299
 10
1.038256194729015
 20
0.257723350591192
 10
1.037944298658338
 20
0.2558769159616716
 10
1.037102276612003
 20
0.2506465241146412
 10
1.035915802381374
 20
0.2425100089576411
 10
1.034580312121818
 20
0.2319250873345666
 10
1.033251600197083
 20
0.219379947852639
 10
1.032134983593635
 20
0.2053221895903512
 10
1.031396137506341
 20
0.1902298833895308
 10
1.031210617961193
 20
0.1745709823266122
 10
1.031764098749569
 20
0.1588233203091267
 10
1.033242016728557
 20
0.143444732648117
 10
1.035820046391286
 20
0.1289131717182617
 10
1.039673743763742
 20
0.1156965905959932
 10
1.044988545703027
 20
0.1042528245923453
 10
1.051950244467647
 20
0.0950697069131135
 10
1.060724278318204
 20
0.088605309803615
 10
1.071496202578927
 20
0.0853274678731389
 10
1.081650513983163
 20
0.0847871347297709
 10
1.092290548535203
 20
0.0855711402982458
 10
1.103264302819844
 20
0.087511273515414
 10
1.114439890485527
 20
0.0904490856820957
 10
1.125675544349576
 20
0.0942362458644972
 10
1.136849258891558
 20
0.098704187598047
 10
1.14781914846165
 20
0.1036945806507035
 10
1.158443208942898
 20
0.1090390954921734
 10
1.168599553282007
 20
0.1145791649561296
 10
1.178126297232651
 20
0.1201566957448232
 10
1.186911553039792
 20
0.1256130022247799
 10
1.194813316586454
 20
0.1307797548657135
 10
1.201689702222843
 20
0.1354986234355806
 10
1.207408823597397
 20
0.1396111592351978
 10
1.211828795060299
 20
0.1429590320325289
  0
LWPOLYLINE
  5
285
102
{ACAD_REACTORS
330
2D7
102
}
330
282
100
AcDbEntity
  8
DIM
 62
     7
100
AcDbPolyline
 90
      369
 70
     0
 43
0.0
 10
1.212668893626023
 20
0.2130239964184462
 10
1.219374941355638
 20
0.2405064803645533
 10
1.226637443831378
 20
0.2668422916827922
 10
1.234366051967555
 20
0.2920024986826863
 10
1.242480297509573
 20
0.3159480519083626
 10
1.25090982996825
 20
0.3386497827350663
 10
1.259554300959628
 20
0.3600788779394666
 10
1.268323124463726
 20
0.380186407234584
 10
1.277156186223891
 20
0.3989630821250198
 10
1.285952782454742
 20
0.4163500914926868
 10
1.294632800303119
 20
0.4323383837764734
 10
1.303105535281908
 20
0.4468690293911486
 10
1.311300873836188
 20
0.4599328583084575
 10
1.319118230647731
 20
0.4714810587085641
 10
1.326487136760206
 20
0.4814744626684569
 10
1.333307480723938
 20
0.4899042555613065
 10
1.339518555946561
 20
0.4967111524004615
 10
1.367831784060584
 20
0.5238276365708625
 10
1.392115727503508
 20
0.5434313273167551
 10
1.412670435631781
 20
0.5563687294424433
 10
1.429785721569267
 20
0.5634664676228667
 10
1.443791632567169
 20
0.5655706912609038
 10
1.454977981749365
 20
0.5635080250314939
 10
1.463654699303397
 20
0.5581148559735461
 10
1.470121834585683
 20
0.5502376888913645
 10
1.474699198614871
 20
0.5407027930584612
 10
1.477676841449138
 20
0.5303567917462857
 10
1.479364693276011
 20
0.5200360719937454
 10
1.480072565815888
 20
0.5105670215414922
 10
1.480100389958053
 20
0.5027861458955823
 10
1.479768332122574
 20
0.4975497122242843
 10
1.479356087667952
 20
0.4956744643714313
 10
1.479193703845361
 20
0.4980065517398984
 10
1.478930386017367
 20
0.4918192369975039
 10
1.478279039090097
 20
0.4849564717253739
 10
1.477230256101016
 20
0.4774683708819154
 10
1.47579498408551
 20
0.4694348103859998
 10
1.473973815379302
 20
0.4609057867288922
 10
1.471747699123021
 20
0.4519615312308912
 10
1.469127226950632
 20
0.4426519219161183
 10
1.466113109664988
 20
0.4330369545740816
 10
1.462696295704979
 20
0.4231967420579484
 10
1.458877377406324
 20
0.4131812808589732
 10
1.454667183337257
 20
0.4030604475977811
 10
1.450046425704144
 20
0.3928944749981724
 10
1.44501605224412
 20
0.3827633574461622
 10
1.439586536124004
 20
0.372706973667615
 10
1.433748707315544
 20
0.3627954372174429
 10
1.427503513555876
 20
0.3531087424816608
 10
1.421890430345243
 20
0.3452846900233446
 10
1.41483299449316
 20
0.3362576639796391
 10
1.406533561307526
 20
0.3262252809727375
 10
1.397204603861624
 20
0.315395038455943
 10
1.387058713695886
 20
0.3039844331808119
 10
1.376308126949318
 20
0.2921809640041442
 10
1.365155554331245
 20
0.2802122454428879
 10
1.35381346891495
 20
0.2682857749503498
 10
1.342494106839431
 20
0.2565890513833242
 10
1.331420177410521
 20
0.2453494523244828
 10
1.32077403733961
 20
0.2347648313302972
 10
1.310788276763631
 20
0.2250524482180438
 10
1.301675250288724
 20
0.2164098011427686
 10
1.293627432391687
 20
0.2090446244920674
 10
1.286857414612939
 20
0.2031744150174894
 10
1.281597668622275
 20
0.1990064332380541
 10
1.281341644341701
 20
0.1984994307057555
 10
1.280664749855681
 20
0.197077349887099
 10
1.279669110555296
 20
0.194918993479197
 10
1.278486494324965
 20
0.1921728108829814
 10
1.277208908790385
 20
0.1890077239644547
 10
1.27595824100485
 20
0.1855822998899441
 10
1.274856259554532
 20
0.182045106527525
 10
1.274005208297658
 20
0.1785849458725579
 10
1.27352673735325
 20
0.1753403864948684
 10
1.273532852943503
 20
0.1724801133261735
 10
1.274135442823478
 20
0.1701628119999423
 10
1.275446513215364
 20
0.1685571674478918
 10
1.277587951172463
 20
0.167821746836351
 10
1.280671644449839
 20
0.1681152357987834
 10
1.284799599971435
 20
0.1696064377340534
 10
1.290103585621658
 20
0.1724438020430909
 10
1.293387879550365
 20
0.17447503649284
 10
1.301207634769589
 20
0.1794727488006256
 10
1.313030519129121
 20
0.1872432317599557
 10
1.328334673645557
 20
0.1976326568902067
 10
1.346588121570107
 20
0.2104773148796433
 10
1.367258767686848
 20
0.225603497118275
 10
1.389824634545249
 20
0.2428473758272318
 10
1.413743746098255
 20
0.2620453601619133
 10
1.438494124895342
 20
0.2830336223434493
 10
1.46355355655168
 20
0.3056283359964507
 10
1.488380183487379
 20
0.3296759095745845
 10
1.512441910486501
 20
0.3550026344678603
 10
1.535216878565663
 20
0.3814546821956508
 10
1.556182991807169
 20
0.4088582256808327
 10
1.574798155696853
 20
0.4370396747805536
 10
1.59054039278417
 20
0.465835201715942
 10
1.59457588580495
 20
0.4730278991292387
 10
1.598924770268105
 20
0.4788167853715244
 10
1.603498474095069
 20
0.4833229182261132
 10
1.608218187571253
 20
0.4866472384126635
 10
1.613005337916355
 20
0.4889106852473422
 10
1.617781470817206
 20
0.490244197344568
 10
1.622447659495556
 20
0.4907389530600366
 10
1.626935448936507
 20
0.4905257725410195
 10
1.631166029425465
 20
0.489705596507184
 10
1.635050947351004
 20
0.4884094820400869
 10
1.63850151216743
 20
0.4867484876247872
 10
1.641458912756647
 20
0.4848233170466596
 10
1.643814815377879
 20
0.4827752636198035
 10
1.645500291147655
 20
0.4806951502984873
 10
1.646436885752791
 20
0.4787139156971261
 10
1.64653579018045
 20
0.476932619002529
 10
1.644001642568042
 20
0.4630916690395175
 10
1.643119508218681
 20
0.4536314555646719
 10
1.643693358641307
 20
0.4480442652428334
 10
1.645526928410582
 20
0.4458023861423435
 10
1.648384428776715
 20
0.4464185773931231
 10
1.652089711378017
 20
0.4493748894274834
 10
1.656416631361523
 20
0.4541539650134432
 10
1.661159279405069
 20
0.4602582085812444
 10
1.666121627017602
 20
0.4671799067957299
 10
1.671077410879007
 20
0.4743917031266758
 10
1.675840838730778
 20
0.4814057643682812
 10
1.680195646551055
 20
0.4876946155231768
 10
1.683935925017678
 20
0.492760661021606
 10
1.686855646341328
 20
0.4960963059955539
 10
1.688738664967303
 20
0.4971840747458991
 10
1.689388952404542
 20
0.4955162539374883
 10
1.689896428805411
 20
0.4953002268499241
 10
1.691345142380555
 20
0.4951830561317401
 10
1.693583918984757
 20
0.4950665258075535
 10
1.696482175405037
 20
0.4949021794589506
 10
1.699898973728721
 20
0.4946116812399115
 10
1.70369337604314
 20
0.494116695304415
 10
1.70772468136991
 20
0.4933588844029427
 10
1.711851951796347
 20
0.4922599126894696
 10
1.715934249409798
 20
0.4907414443179743
 10
1.71984087253012
 20
0.4887450235717968
 10
1.723421002413537
 20
0.486202432370309
 10
1.726543581978482
 20
0.4830252171020942
 10
1.729068028713719
 20
0.4791650398158858
 10
1.730853167772288
 20
0.4745235660691574
 10
1.731758416642946
 20
0.4690524579106424
 10
1.731642837413026
 20
0.4626733794943192
 10
1.731600596058562
 20
0.4540432742998295
 10
1.733209919806284
 20
0.4472237305412606
 10
1.736258927918612
 20
0.4420572472565745
 10
1.740535621190829
 20
0.4383763241854713
 10
1.745807883354572
 20
0.4360036987036953
 10
1.751863833672267
 20
0.4347818698491999
 10
1.758501353770292
 20
0.4345332195962932
 10
1.76547856501633
 20
0.4351006023843649
 10
1.772593230569619
 20
0.4362964008894732
 10
1.779623707328624
 20
0.4379832312132184
 10
1.786357640687192
 20
0.4399635952005561
 10
1.792573150609499
 20
0.4420801103565779
 10
1.798048238592578
 20
0.4441653948881381
 10
1.802581023197099
 20
0.4460618293660481
 10
1.805939269687556
 20
0.4475821518677954
 10
1.80791097885924
 20
0.4485588621330852
 10
1.823103934072896
 20
0.4571594790804774
 10
1.83691307671205
 20
0.465446467651212
 10
1.849397810230499
 20
0.4733691205511708
 10
1.86061801195062
 20
0.4809167276792508
 10
1.870613086729704
 20
0.4880388186756193
 10
1.879442793422981
 20
0.4947146841409183
 10
1.887176653249639
 20
0.5009034976121374
 10
1.893854426468408
 20
0.506584786624206
 10
1.89954563429849
 20
0.5117177247141172
 10
1.904289918531453
 20
0.5162718401185451
 10
1.908156800386507
 20
0.5202063063744813
 10
1.911196039420609
 20
0.5235005325497096
 10
1.913457276723605
 20
0.526123928413762
 10
1.915010033514697
 20
0.5280356675036302
 10
1.915893951585445
 20
0.5292052780559918
 10
1.916178670622208
 20
0.5296019329060897
 10
1.916827440337179
 20
0.5294942395593037
 10
1.918653402501625
 20
0.5291425832299055
 10
1.921446216450831
 20
0.5285194538331286
 10
1.925015777050859
 20
0.5276171029464259
 10
1.92917162376635
 20
0.5263977842525005
 10
1.933703415932569
 20
0.524833987666586
 10
1.938430929246713
 20
0.5229078470007398
 10
1.943133705278654
 20
0.5205819713390927
 10
1.947641755958095
 20
0.5178583746230672
 10
1.951744385218901
 20
0.5146795488731382
 10
1.955241607096013
 20
0.5110478634321609
 10
1.957942842586945
 20
0.50691557268458
 10
1.959648105726643
 20
0.5022850459732418
 10
1.960156699747201
 20
0.4970986568514882
 10
1.959278637981839
 20
0.4913586561950237
 10
1.95682345989519
 20
0.4850272976865498
 10
1.951355534713201
 20
0.4742613191335252
 10
1.944506428941544
 20
0.4608715189061617
 10
1.9364688539913
 20
0.4450856299885527
 10
1.927465637635421
 20
0.4271410292616125
 10
1.917709371414346
 20
0.4072552134768995
 10
1.907413120737082
 20
0.3856856765789764
 10
1.896789358676905
 20
0.3626399160211449
 10
1.886061149941077
 20
0.3383753072808329
 10
1.875420969006377
 20
0.3130995847456255
 10
1.865111879176566
 20
0.2870698869586565
 10
1.855316592564456
 20
0.2605140653711668
 10
1.846267699306991
 20
0.233649379800422
 10
1.838168265514909
 20
0.206733442658134
 10
1.831240882026897
 20
0.179983632228712
 10
1.825698258850529
 20
0.1536274445619643
 10
1.821753461394806
 20
0.1279223736024555
 10
1.819633761054447
 20
0.116986717679417
 10
1.81630345717329
 20
0.1076955188300133
 10
1.81194194478418
 20
0.0999966481544164
 10
1.80673885515246
 20
0.0938578568821615
 10
1.800883464142074
 20
0.0892168983480311
 10
1.794565284551246
 20
0.086031524483305
 10
1.787983828476455
 20
0.0842593687521287
 10
1.781328608715909
 20
0.0838581830857841
 10
1.774779138769588
 20
0.0847858378826967
 10
1.768544693097929
 20
0.0869798495433632
 10
1.762804785200906
 20
0.0903980884662072
 10
1.757749046343874
 20
0.0950083058807661
 10
1.753566870857916
 20
0.1007582544200734
 10
1.750457652372368
 20
0.1075955682500158
 10
1.748600904387195
 20
0.1154781177690189
 10
1.748206138297121
 20
0.1243634179740827
 10
1.748780145173789
 20
0.1306070560245729
 10
1.750020336435369
 20
0.1382128975713535
 10
1.751844703754429
 20
0.147011902281271
 10
1.75418111963463
 20
0.1568249120557876
 10
1.756947338814256
 20
0.1674628879652484
 10
1.760071233796963
 20
0.1787466719111155
 10
1.763480914020711
 20
0.1905171043913505
 10
1.767094134223782
 20
0.2025851464762987
 10
1.77082876761159
 20
0.2147717585345639
 10
1.774622685986059
 20
0.2268976640004627
 10
1.778393762552596
 20
0.2387838232425938
 10
1.782059988983775
 20
0.2502611959278109
 10
1.785559237081507
 20
0.2611505054904271
 10
1.788809261584077
 20
0.2712627130007927
 10
1.791728054164039
 20
0.2804287781257617
 10
1.79424336885792
 20
0.2884595434685391
 10
1.796622058514543
 20
0.2959318881820465
 10
1.799193578049369
 20
0.3036419651778992
 10
1.801876511470695
 20
0.311470730614209
 10
1.804599560552162
 20
0.319309021480203
 10
1.807281427769197
 20
0.3270477932322429
 10
1.80985069642832
 20
0.334567883561304
 10
1.812236186770348
 20
0.3417701287548596
 10
1.814356482803546
 20
0.3485354849710252
 10
1.816140167834447
 20
0.354744789900769
 10
1.817516062103855
 20
0.3602988798315696
 10
1.818402749620041
 20
0.365078710921539
 10
1.818728932156673
 20
0.3689751201599005
 10
1.818413312189171
 20
0.3718790630030213
 10
1.817394590789454
 20
0.3736812579729829
 10
1.815581234200394
 20
0.3742527803967857
 10
1.812912061961057
 20
0.3734943480947681
 10
1.796721687082751
 20
0.3668056814638252
 10
1.782378550396252
 20
0.3624052917092051
 10
1.769740173916048
 20
0.360084852107601
 10
1.7586736050863
 20
0.3595959202755683
 10
1.749046246752584
 20
0.3607200517244031
 10
1.740735264124467
 20
0.3632186849017707
 10
1.733587942983874
 20
0.3668636129550045
 10
1.727491447838616
 20
0.3714161558646172
 10
1.722293182937782
 20
0.3766581060762011
 10
1.717870313490919
 20
0.382350902037416
 10
1.714100123174723
 20
0.3882659814941665
 10
1.710829779303992
 20
0.3941651382955395
 10
1.707936684022577
 20
0.3998298094856984
 10
1.705288003241761
 20
0.4050215519794432
 10
1.702741022041749
 20
0.409512040456967
 10
1.700172905632086
 20
0.4130627133659282
 10
1.696137620480755
 20
0.4126404886065007
 10
1.689794066570854
 20
0.4056251465769023
 10
1.68148264585325
 20
0.3928927161076263
 10
1.671563521941024
 20
0.3752989904983721
 10
1.660377452186452
 20
0.3537499964743826
 10
1.64827448243723
 20
0.329091646504251
 10
1.635615250175007
 20
0.3022197310806867
 10
1.622729921118114
 20
0.273990398904818
 10
1.609989013579301
 20
0.2452893227039627
 10
1.59773292950944
 20
0.2169925313086036
 10
1.586302070859389
 20
0.1899760535492341
 10
1.576056719709363
 20
0.1651056820238068
 10
1.567357276606742
 20
0.1432572086285262
 10
1.560524263373018
 20
0.1253168984264228
 10
1.555937960684921
 20
0.1121503070811602
 10
1.55392877119506
 20
0.1046335818903721
 10
1.552494847019275
 20
0.1000902503530412
 10
1.549697534675786
 20
0.0961131102181003
 10
1.545747648697876
 20
0.0927696687633262
 10
1.540865529048524
 20
0.0900873176063364
 10
1.53526199026102
 20
0.0881335640249077
 10
1.529167490063734
 20
0.0869456804677711
 10
1.522802842288214
 20
0.0865910557455561
 10
1.516388505364588
 20
0.0871070807741337
 10
1.510135175358989
 20
0.0885512635330272
 10
1.504273546934079
 20
0.0909808750674728
 10
1.49901407922173
 20
0.094433424760485
 10
1.494577349119197
 20
0.0989563028261937
 10
1.491194288223411
 20
0.1046267789063364
 10
1.489085236497366
 20
0.1114722446185343
 10
1.488450890708953
 20
0.1195503264094473
 10
1.489531826351935
 20
0.1289081775589231
 10
1.492492745176342
 20
0.1424740523819956
 10
1.496050493691889
 20
0.1566128969422884
 10
1.500092828742104
 20
0.1711360277115759
 10
1.50450727023621
 20
0.1858347625651309
 10
1.509191574315984
 20
0.2005202995075841
 10
1.514033142423514
 20
0.2149739571159586
 10
1.518919849869469
 20
0.229017051160282
 10
1.52375909669243
 20
0.2424306632832867
 10
1.528428521970539
 20
0.2550162291256424
 10
1.532825763378404
 20
0.2665749473937229
 10
1.536838459292411
 20
0.2769081352610616
 10
1.540374246685445
 20
0.2858168729668904
 10
1.543300646870235
 20
0.2930927153207694
 10
1.545535296117904
 20
0.2985366240947922
 10
1.546945952675471
 20
0.3019601526950204
 10
1.54743989811439
 20
0.3031343834659381
 10
1.546054001189602
 20
0.3018007082004175
 10
1.542138899850435
 20
0.2980168237539757
 10
1.536058952118224
 20
0.2921484393448193
 10
1.52815816201641
 20
0.2845315032306725
 10
1.518820767695686
 20
0.2755214883972048
 10
1.508390773179478
 20
0.2654543431021423
 10
1.497242654254534
 20
0.2547056573947959
 10
1.485730177308241
 20
0.2435912624692467
 10
1.474227818127339
 20
0.232486748374809
 10
1.463079580735254
 20
0.2217280633692091
 10
1.452649704686187
 20
0.2116709173723983
 10
1.443312310365463
 20
0.2026609025389305
 10
1.435411520263642
 20
0.1950439664247838
 10
1.429331454064296
 20
0.1891655827173757
 10
1.425406471894014
 20
0.1853918160363292
 10
1.424020456502091
 20
0.1840481414725552
 10
1.401590836928946
 20
0.1656425671592085
 10
1.381023667400135
 20
0.1499651203781376
 10
1.362276462912667
 20
0.1368062897346132
 10
1.345276503634487
 20
0.1259369206388357
 10
1.329981541496884
 20
0.1171675002925809
 10
1.316318856667813
 20
0.1102688741060493
 10
1.30423608331317
 20
0.1050416484499053
 10
1.293670619366295
 20
0.1012665495654588
 10
1.284569862058802
 20
0.0987241852268746
 10
1.276871446258326
 20
0.0972152802719624
 10
1.270522769196468
 20
0.0965204424748851
 10
1.265451229508329
 20
0.0964205165440966
 10
1.261614460658051
 20
0.096715990383121
 10
1.258949979046136
 20
0.0971975895315147
 10
1.257385064840526
 20
0.0976361593994781
 10
1.256877351505366
 20
0.0978321878905373
 10
1.248959066253362
 20
0.1005561847091467
 10
1.2420858021067
 20
0.1036978307697822
 10
1.23620649636986
 20
0.1071677247238814
 10
1.231230089154273
 20
0.1108769390914617
 10
1.227085874569326
 20
0.1147663073530047
 10
1.22370255438868
 20
0.1187266664977393
 10
1.220989424125221
 20
0.122699086940429
 10
1.218895539550544
 20
0.12660416663077
 10
1.217319723010703
 20
0.1303430972576685
 10
1.216201149446177
 20
0.1338465945362088
 10
1.215458876733819
 20
0.1370356118175184
 10
1.215031842879838
 20
0.1398208662201821
 10
1.214819107164558
 20
0.1421235480296055
 10
1.214769843826729
 20
0.1438742544937348
 10
1.214792992977798
 20
0.1449840581325841
 10
1.214817611792859
 20
0.1453737938301352
  0
LWPOLYLINE
  5
286
102
{ACAD_REACTORS
330
2D7
102
}
330
282
100
AcDbEntity
  8
DIM
 62
     7
100
AcDbPolyline
 90
       48
 70
     1
 43
0.0
 10
1.345101058030437
 20
0.3441043089415796
 10
1.348812760208005
 20
0.3492907014204611
 10
1.352731319444892
 20
0.355054683855121
 10
1.356918153136305
 20
0.3615155370217256
 10
1.361434441743185
 20
0.3687725430999471
 10
1.366341484193618
 20
0.3769349835677023
 10
1.371700697882822
 20
0.3861221392011647
 10
1.377583262569991
 20
0.3964331737128539
 10
1.384040596352093
 20
0.4079874863460891
 10
1.386916029957902
 20
0.4134938083107578
 10
1.389675262933245
 20
0.419321529425206
 10
1.392236286950677
 20
0.4253016093562874
 10
1.39452697451388
 20
0.4312548900054587
 10
1.396485315891901
 20
0.4370120941052918
 10
1.398039183588423
 20
0.4423940635572397
 10
1.399106569276007
 20
0.4472317580281562
 10
1.399625463223713
 20
0.4513559002506114
 10
1.399533618766312
 20
0.4545772143606684
 10
1.398739028278129
 20
0.4567267784923193
 10
1.397189799793615
 20
0.4576451962092456
 10
1.394803688051041
 20
0.4571434285817944
 10
1.391528682617732
 20
0.4550520798753901
 10
1.387262776569734
 20
0.4512023466911721
 10
1.381963840305481
 20
0.4454147155291697
 10
1.375549865497532
 20
0.4375201460562348
 10
1.369795133571372
 20
0.4295577619623839
 10
1.364069025992534
 20
0.4206349713677504
 10
1.35844414412594
 20
0.4109709295638897
 10
1.352952736742025
 20
0.4007552678161659
 10
1.347647288142063
 20
0.3901973790521573
 10
1.342580282627302
 20
0.3795066561994513
 10
1.337784205902487
 20
0.3688927291199171
 10
1.333331303931096
 20
0.3585447552103442
 10
1.329244181586766
 20
0.3486824820980008
 10
1.325585204001853
 20
0.3395051849450716
 10
1.322406855477623
 20
0.3312222566791423
 10
1.319741503251684
 20
0.3240333278638285
 10
1.317651512456379
 20
0.3181376736613188
 10
1.316169487263621
 20
0.3137549232317358
 10
1.315357792805762
 20
0.3110843517372643
 10
1.315258914085802
 20
0.3103354705726335
 10
1.319582398522186
 20
0.3148245665092801
 10
1.323612467762117
 20
0.3190271183437439
 10
1.327410183799393
 20
0.3230324089574434
 10
1.331036964029244
 20
0.3269597191265472
 10
1.334564225145143
 20
0.3309282111600851
 10
1.338033030544387
 20
0.3350274048737578
 10
1.341524914685834
 20
0.339386343407698
  0
LWPOLYLINE
  5
287
330
282
100
AcDbEntity
  8
DIM
 62
     7
100
AcDbPolyline
 90
       64
 70
     1
 43
0.0
 10
2.052589263813125
 20
0.6166320229054901
 10
2.05146218967917
 20
0.6126650966525081
 10
2.049957037685921
 20
0.6088626609229788
 10
2.048074163234794
 20
0.6052547136116555
 10
2.045853681985938
 20
0.6018507801482187
 10
2.043295949340787
 20
0.5986808584274286
 10
2.040451198724888
 20
0.5957643547100755
 10
2.037319667072523
 20
0.5931212675926627
 10
2.033931470745592
 20
0.5907612409720198
 10
2.030307082209162
 20
0.5887240351068606
 10
2.026476617825146
 20
0.5870192938940218
 10
2.02245031382607
 20
0.5856668974628559
 10
2.018248405742724
 20
0.5846866074755859
 10
2.013911246169556
 20
0.5841079479583993
 10
2.009439072040834
 20
0.5839509175077993
 10
2.004971873532099
 20
0.5842138575837908
 10
2.000649640818885
 20
0.5848951096463786
 10
1.996472136966893
 20
0.5859746750990614
 10
1.992479003767719
 20
0.5874220821785077
 10
1.988680003585315
 20
0.5892172138210708
 10
1.985104897380168
 20
0.591339716028827
 10
1.981773565281635
 20
0.5937793525692286
 10
1.978705532017649
 20
0.5964958893149888
 10
1.975920677717567
 20
0.599479090033567
 10
1.973448763341863
 20
0.6027086007270324
 10
1.971299551254517
 20
0.60616430433174
 10
1.969502683948846
 20
0.6098158475515021
 10
1.968088040852457
 20
0.6136528756866398
 10
1.967055266563932
 20
0.6176453908424016
 10
1.966444239809135
 20
0.6217829198519543
 10
1.966274603783148
 20
0.6260352278862698
 10
1.966544936880261
 20
0.6302823233663127
 10
1.967253817494757
 20
0.6344042147130598
 10
1.968380891628704
 20
0.6383711409660418
 10
1.969886043621961
 20
0.642173576695571
 10
1.97176903654023
 20
0.6457915233051477
 10
1.973999517087335
 20
0.6491953383014409
 10
1.976547250434229
 20
0.6523653784893746
 10
1.979402118815528
 20
0.6552917630378339
 10
1.982533650467892
 20
0.6579348501552485
 10
1.985921846794823
 20
0.660294876775895
 10
1.989546235331246
 20
0.6623320826410506
 10
1.993386699013527
 20
0.6640367053867476
 10
1.997413003012596
 20
0.6653891018179117
 10
2.001614911095941
 20
0.6663693918051817
 10
2.00595207066911
 20
0.66694805132237
 10
2.010424244797832
 20
0.6671050817729683
 10
2.014891443306566
 20
0.6668421416969786
 10
2.019213676019788
 20
0.6661608896343889
 10
2.023391179871772
 20
0.665081324181708
 10
2.027384313070953
 20
0.6636339171022599
 10
2.031173313955093
 20
0.6618389039268405
 10
2.034748420160241
 20
0.6597164017190878
 10
2.038079752258781
 20
0.6572767651786826
 10
2.041147785522767
 20
0.6545602284329206
 10
2.043922522057449
 20
0.6515671468832363
 10
2.046404435731403
 20
0.6483375177226272
 10
2.048543648520507
 20
0.6448819325850632
 10
2.050340397359036
 20
0.6412203900670477
 10
2.051755040455425
 20
0.6373833619319101
 10
2.05278781474395
 20
0.6333908467761482
 10
2.05339884149874
 20
0.629253317766592
 10
2.053568477524727
 20
0.6250010097322783
 10
2.053298144427614
 20
0.6207539142522336
  0
LWPOLYLINE
  5
288
330
282
100
AcDbEntity
  8
DIM
 62
     7
100
AcDbPolyline
 90
      512
 70
     1
 43
0.0
 10
1.953403120018066
 20
0.320416265932522
 10
1.968145767045271
 20
0.3391229267417426
 10
1.981687172793066
 20
0.3560436929883863
 10
1.994128870316835
 20
0.3713073708783039
 10
2.005612745266375
 20
0.3850722906435351
 10
2.016260566227856
 20
0.3974870201521554
 10
2.026173984723797
 20
0.4086903649082672
 10
2.035505004169408
 20
0.4188505359750199
 10
2.044345276788945
 20
0.4281064573236666
 10
2.052846569063319
 20
0.4366063414208483
 10
2.061100770151099
 20
0.4445091108343214
 10
2.069259409598913
 20
0.4519429794342234
 10
2.077424494330706
 20
0.4590767506194151
 10
2.08572779223089
 20
0.4660588737908285
 10
2.094291071885628
 20
0.4730379168165389
 10
2.103235864946803
 20
0.4801424489681132
 10
2.112684295402004
 20
0.4875510360083802
 10
2.130778346890238
 20
0.5004475859633573
 10
2.14729068754633
 20
0.5098326275752552
 10
2.162265579380431
 20
0.5160656617125881
 10
2.175706694873944
 20
0.5194566666211689
 10
2.187628179675115
 20
0.5203554992726822
 10
2.198053704861862
 20
0.5190719009786644
 10
2.207007415380687
 20
0.5159556102436511
 10
2.214503219945541
 20
0.5113364854428273
 10
2.220544791037831
 20
0.5055245048220077
 10
2.225176390667705
 20
0.4988791692497028
 10
2.228401809783719
 20
0.4917204562699809
 10
2.230234838632689
 20
0.4843682249597699
 10
2.230699622161104
 20
0.4771722138236126
 10
2.22981994991403
 20
0.4704521634712915
 10
2.227609730605422
 20
0.4645379322779882
 10
2.224082991416373
 20
0.4597693779171319
 10
2.223758985989455
 20
0.4594331927251183
 10
2.222300843101194
 20
0.4579103600628028
 10
2.219859144561091
 20
0.4552490994143064
 10
2.216534357220226
 20
0.4514882233012134
 10
2.212477299822381
 20
0.4466959498041554
 10
2.207798556984052
 20
0.440920972275821
 10
2.20262859345108
 20
0.4342017478363705
 10
2.197098110903596
 20
0.426596732202464
 10
2.191337811021739
 20
0.4181643810907581
 10
2.185458159954848
 20
0.4089433885557004
 10
2.179599858681314
 20
0.3989920918468019
 10
2.173893490414123
 20
0.3883589473824749
 10
2.168449758236903
 20
0.3771026478136683
 10
2.163409126193762
 20
0.3652615317933918
 10
2.158902177497687
 20
0.3528840557400539
 10
2.155039733699453
 20
0.3400389116028535
 10
2.153242517706601
 20
0.3352198645315898
 10
2.15081873341272
 20
0.3315383200599449
 10
2.147877306894287
 20
0.3289029813650774
 10
2.144506691762721
 20
0.3271827913654288
 10
2.140795815498023
 20
0.3262866901724468
 10
2.136843249476989
 20
0.3260935015356789
 10
2.132747802010719
 20
0.3265020478011831
 10
2.128598163644923
 20
0.3274012704838967
 10
2.124493024223554
 20
0.3286799926316242
 10
2.120531192057697
 20
0.3302370365904164
 10
2.116811238524178
 20
0.3319512261098261
 10
2.113411973337584
 20
0.3337216204701878
 10
2.110442204107258
 20
0.3354469235504123
 10
2.107990502911775
 20
0.3370060775671941
 10
2.106155678062215
 20
0.3382979048665824
 10
2.105036300935402
 20
0.3392012291981299
 10
2.101989047479634
 20
0.3428275836176962
 10
2.099888717620977
 20
0.3470327607227439
 10
2.098664368534528
 20
0.3517375953972603
 10
2.098195297838401
 20
0.3568835134574346
 10
2.098420325071671
 20
0.3623712327236053
 10
2.09921874785244
 20
0.368142179011965
 10
2.100519623355815
 20
0.3741171872064974
 10
2.102221892394986
 20
0.3802074482943549
 10
2.104234850482832
 20
0.3863540326903099
 10
2.10646731926365
 20
0.3924580136161193
 10
2.108818713419218
 20
0.3984705792519492
 10
2.111217971657481
 20
0.4043025651835262
 10
2.113544154662271
 20
0.4098753986305468
 10
2.11572631960869
 20
0.4151099144769877
 10
2.117673762009602
 20
0.4199471831376176
 10
2.119285304211075
 20
0.4242883963013427
 10
2.118149745144016
 20
0.4229817572520141
 10
2.114935187018211
 20
0.4192395765968584
 10
2.109894573968517
 20
0.4133088751136196
 10
2.103281087064097
 20
0.4054566721765429
 10
2.095337671141557
 20
0.3959301070305159
 10
2.086337268932268
 20
0.3849759635189933
 10
2.076513181376022
 20
0.3728714972487594
 10
2.066148232035303
 20
0.3598533742978773
 10
2.055475603382753
 20
0.3461888509748778
 10
2.044758238851493
 20
0.3321248295903612
 10
2.034249319510678
 20
0.3179283295185744
 10
2.024211670326288
 20
0.3038362537718626
 10
2.014888473069213
 20
0.2901157401916166
 10
2.006532908808615
 20
0.2770338081520833
 10
1.999417683341569
 20
0.2648172429002162
 10
1.993776216075019
 20
0.2537532993410494
 10
1.987298080134117
 20
0.2395990506951069
 10
1.981246311945504
 20
0.2259797885347936
 10
1.9757918473166
 20
0.2129734933047107
 10
1.971105977456275
 20
0.2006881433442089
 10
1.967360112040509
 20
0.1892417162908888
 10
1.964715306045619
 20
0.1787223103547415
 10
1.963362849276975
 20
0.1692376669408375
 10
1.963443916581532
 20
0.160886120491698
 10
1.965149916231787
 20
0.1537854117106452
 10
1.968641784736917
 20
0.1480136395094131
 10
1.974091050240055
 20
0.143698780823863
 10
1.981658767717526
 20
0.1409289338639788
 10
1.991536226974687
 20
0.1398118400348327
 10
2.003864721325641
 20
0.1404558330771994
 10
2.018845302939702
 20
0.1429485373325008
 10
2.03661926513098
 20
0.1473982865415166
 10
2.047141296337706
 20
0.1508838796452192
 10
2.058145496677965
 20
0.1553938325131998
 10
2.06945986414005
 20
0.1607601710165927
 10
2.0809322768416
 20
0.1668046847939983
 10
2.092400732069172
 20
0.1733592812494056
 10
2.10370310864215
 20
0.1802458684885604
 10
2.114687403145346
 20
0.1872962354483079
 10
2.125191494398151
 20
0.1943322902343922
 10
2.135063378985364
 20
0.2011858217836604
 10
2.144131054895268
 20
0.2076888559672518
 10
2.152242400245512
 20
0.21366318242376
 10
2.159225413024408
 20
0.2189408270243245
 10
2.164947969946091
 20
0.2233433424732567
 10
2.169228069700608
 20
0.226702873108831
 10
2.17191370887275
 20
0.2288512078679048
 10
2.172842647814782
 20
0.2296002555579619
 10
2.169225629948897
 20
0.2256528283252113
 10
2.170465350699039
 20
0.2289983764808454
 10
2.176079877865959
 20
0.2386325388570931
 10
2.185627276443426
 20
0.2535504804176067
 10
2.198635495063314
 20
0.2727377222292233
 10
2.214672716484756
 20
0.2951993100867067
 10
2.233266889339645
 20
0.3199207650568887
 10
2.253955961558077
 20
0.3458874897394573
 10
2.276298116600969
 20
0.3721046483963235
 10
2.299821184633046
 20
0.3975477627960675
 10
2.324083467582347
 20
0.4212319964988485
 10
2.348622794911854
 20
0.4421327528061063
 10
2.372977233018822
 20
0.4592454336157808
 10
2.396694847598766
 20
0.4715653223586696
 10
2.419323704347199
 20
0.4780877024655741
 10
2.440391751895987
 20
0.4777980950033261
 10
2.44374500041588
 20
0.4772083286395788
 10
2.447269540144631
 20
0.4767265406151804
 10
2.450905138358443
 20
0.4763334431364843
 10
2.454601917033187
 20
0.4760396278374568
 10
2.458309524276181
 20
0.4758156891590524
 10
2.461967964297912
 20
0.4756623379041241
 10
2.465527122139981
 20
0.4755701671101349
 10
2.468936764376834
 20
0.4755197705162911
 10
2.472146894517209
 20
0.4755117404583054
 10
2.475097516771604
 20
0.4755467877390363
 10
2.477748278545575
 20
0.475595388332291
 10
2.48002906628421
 20
0.47564837220982
 10
2.4818900019634
 20
0.4757163310055859
 10
2.483290732988706
 20
0.4757697406934014
 10
2.484171263570608
 20
0.4758093120761231
 10
2.484471479452459
 20
0.4758257566583524
 10
2.484774775480012
 20
0.4761021829951382
 10
2.485654073332213
 20
0.4768818209156632
 10
2.487038548651284
 20
0.4780955046021607
 10
2.488877138741699
 20
0.479653832706072
 10
2.491129135607579
 20
0.4814972833064548
 10
2.493713478658641
 20
0.4835368104561777
 10
2.496579460600749
 20
0.4857130107014403
 10
2.499686136503768
 20
0.487946363524797
 10
2.502962563542794
 20
0.4901577038102279
 10
2.506347916658306
 20
0.4922777472728211
 10
2.509791370089054
 20
0.4942370911605245
 10
2.513241861139491
 20
0.4959463341247812
 10
2.516638564750103
 20
0.4973361918806809
 10
2.51992065586139
 20
0.4983373801433118
 10
2.523027190946692
 20
0.498870615329512
 10
2.525917343543
 20
0.4988663762200876
 10
2.530051840465134
 20
0.4983773616999976
 10
2.534195270481234
 20
0.4977982350284958
 10
2.538266928402435
 20
0.4970699481532091
 10
2.542216225401759
 20
0.4961430969185887
 10
2.545992335717954
 20
0.494948278572581
 10
2.549514791096427
 20
0.4934464436593178
 10
2.552732647308772
 20
0.4915581901284956
 10
2.5555755538658
 20
0.4892543493553525
 10
2.557992566539112
 20
0.486455519289585
 10
2.559913097905237
 20
0.4831125327099333
 10
2.56127655983893
 20
0.4791761039279834
 10
2.562032126578955
 20
0.4745768301916887
 10
2.562109210701819
 20
0.4692655442797822
 10
2.5614472240823
 20
0.4631929605038625
 10
2.559975342362641
 20
0.4562899130461578
 10
2.557652857546969
 20
0.4484968799857239
 10
2.553908247211488
 20
0.4380005047335054
 10
2.549078714694211
 20
0.4254068350671787
 10
2.543338986751123
 20
0.4111138289754131
 10
2.536883551800421
 20
0.39549920891608
 10
2.529886899663821
 20
0.3789409342813403
 10
2.522543637226668
 20
0.3618267268273243
 10
2.515028254310664
 20
0.3445345459461926
 10
2.507525240035761
 20
0.3274422325629605
 10
2.500219201989054
 20
0.3109376269009001
 10
2.493284629992253
 20
0.2953986883521722
 10
2.486925893294667
 20
0.2811930216092566
 10
2.481307837821177
 20
0.2687287024262144
 10
2.476614715757449
 20
0.2583635731315592
 10
2.473041133988829
 20
0.2504853554814161
 10
2.470761700804168
 20
0.2454820081662028
 10
2.469960905323418
 20
0.2437313721109326
 10
2.472310596237832
 20
0.2462237108934229
 10
2.478964839196407
 20
0.253295376231117
 10
2.489346329235914
 20
0.2643331642594973
 10
2.502877524458881
 20
0.2787038725175464
 10
2.51897135753812
 20
0.2958144142043988
 10
2.537050405043288
 20
0.3150415861572924
 10
2.556537125076879
 20
0.3357521859152044
 10
2.576854449609975
 20
0.3573530082101293
 10
2.597404956615712
 20
0.379221086813585
 10
2.617611222663754
 20
0.4007332185628077
 10
2.63690606055627
 20
0.4212860804243928
 10
2.654702047564668
 20
0.4402565877027183
 10
2.670411879427476
 20
0.4570316550004119
 10
2.683468132012606
 20
0.4709879606875678
 10
2.693273501760337
 20
0.4815125378339573
 10
2.699260683005718
 20
0.4879920641079228
 10
2.704124840350566
 20
0.492534758608386
 10
2.709670182706268
 20
0.4963293308053576
 10
2.715736010497941
 20
0.4993176803836033
 10
2.722151624852436
 20
0.5014418254950268
 10
2.728746445363753
 20
0.502653783589798
 10
2.735349773158759
 20
0.5028955728198188
 10
2.741791027831439
 20
0.5021192106352555
 10
2.747909509806916
 20
0.5002665967208735
 10
2.753524520913799
 20
0.4972798676957258
 10
2.758485479342574
 20
0.4931108040756893
 10
2.762611686921857
 20
0.4877015424798099
 10
2.765732444778514
 20
0.4809941010600039
 10
2.767687171804787
 20
0.4729403787992883
 10
2.768295288296428
 20
0.463492511614966
 10
2.76740597550966
 20
0.4525822814264089
 10
2.764828772909112
 20
0.4401719419163186
 10
2.761057200123424
 20
0.4265556671422744
 10
2.756717255468494
 20
0.4122360763523059
 10
2.751941417631599
 20
0.3974216147368548
 10
2.746832522806677
 20
0.3823510807825485
 10
2.741492933319094
 20
0.3672232757830098
 10
2.736035484661059
 20
0.3522768797577171
 10
2.730582419287287
 20
0.3377004577677578
 10
2.725236691858881
 20
0.3237428075980055
 10
2.720100783168334
 20
0.3106127298403383
 10
2.715287173306435
 20
0.2985189066194778
 10
2.710918460129327
 20
0.287679900891268
 10
2.707097479830963
 20
0.2783345111423312
 10
2.703936475567822
 20
0.2706714209008947
 10
2.701538402000984
 20
0.2649394279518393
 10
2.700015620754079
 20
0.2613372151216371
 10
2.699490729683262
 20
0.2600833453661302
 10
2.701909941816872
 20
0.2625348576856155
 10
2.708762393733351
 20
0.2694541642066746
 10
2.719400429980289
 20
0.2801988924400369
 10
2.733196512168937
 20
0.2941364322603945
 10
2.74952310191054
 20
0.3106341735424429
 10
2.767752542349192
 20
0.3290495068626296
 10
2.787237178032498
 20
0.3487400597316768
 10
2.807359351402816
 20
0.3690631042588883
 10
2.827481643240275
 20
0.3893961480843497
 10
2.846976159754689
 20
0.4090765831880017
 10
2.865195600895091
 20
0.427492034975332
 10
2.881522190636694
 20
0.4439897762573804
 10
2.895328272123592
 20
0.4579271976105961
 10
2.905966426837679
 20
0.4686819251422119
 10
2.912818878754151
 20
0.475601231663271
 10
2.915237972420626
 20
0.4780427446845028
 10
2.916934369518081
 20
0.4785726851412928
 10
2.919851225279728
 20
0.4799782286182808
 10
2.923815353022447
 20
0.4819914080040882
 10
2.928633212065157
 20
0.4843144952268528
 10
2.93412161642648
 20
0.4866796416423309
 10
2.9400869069582
 20
0.4887791198804124
 10
2.946345897678931
 20
0.4903450812968533
 10
2.952715047205863
 20
0.4910796793526551
 10
2.959011051090463
 20
0.4907050661053152
 10
2.965040605585954
 20
0.4889435120794854
 10
2.970620169309519
 20
0.4854971707361653
 10
2.975566437812624
 20
0.4800881941328559
 10
2.979685988881357
 20
0.472428853495952
 10
2.982805517365434
 20
0.4622411824158146
 10
2.984721483285532
 20
0.4492275712877305
 10
2.985260581491381
 20
0.4331100537020572
 10
2.98504806707406
 20
0.4253020233728116
 10
2.984578887982181
 20
0.4177770535403323
 10
2.983842097180342
 20
0.410455268285741
 10
2.982816511400613
 20
0.403236911560807
 10
2.981491302074743
 20
0.3960521067449036
 10
2.979845167467665
 20
0.3887910984915415
 10
2.977877041375094
 20
0.381363893116454
 10
2.975545978866882
 20
0.3736909701021887
 10
2.972850913738746
 20
0.3656823357644825
 10
2.96978078048815
 20
0.3572481148862039
 10
2.966314277380035
 20
0.3482785521208633
 10
2.962430576547873
 20
0.3387038893149832
 10
2.958118612489158
 20
0.3284342512514335
 10
2.953357201935936
 20
0.3173698818819783
 10
2.948145278683938
 20
0.3054207875223511
 10
2.942441779335879
 20
0.2924974483568476
 10
2.935152659739969
 20
0.2757326240059452
 10
2.927435798844356
 20
0.2574727620700568
 10
2.919415334578033
 20
0.2380664163823027
 10
2.911235521933676
 20
0.2178719031397609
 10
2.903000618710926
 20
0.1972480124080871
 10
2.894854761435311
 20
0.1765430610861163
 10
2.886902207906473
 20
0.1561158392394972
 10
2.879297330882472
 20
0.1363345438964245
 10
2.872134151930424
 20
0.1175380849931926
 10
2.865567043808383
 20
0.1000946595579908
 10
2.859700264315996
 20
0.0843630576564749
 10
2.854667950680536
 20
0.0706917146546218
 10
2.850594240831007
 20
0.0594291843855448
 10
2.847613508928972
 20
0.0509439008117223
 10
2.845840012072329
 20
0.0455945355316647
 10
2.845407887488342
 20
0.0437295239113489
 10
2.840549413209203
 20
0.0438870919251233
 10
2.835764014163544
 20
0.0443038124234576
 10
2.831082635983243
 20
0.0450593243909427
 10
2.826576221493212
 20
0.0462327929435951
 10
2.822285834090749
 20
0.0479137378971153
 10
2.818252418705995
 20
0.0501816797689561
 10
2.814547036630997
 20
0.0531257829733818
 10
2.811200633497662
 20
0.0568256864949888
 10
2.808274152832638
 20
0.061360673916937
 10
2.805818657331464
 20
0.0668201465877818
 10
2.803875091924282
 20
0.0732836250249704
 10
2.802504518604912
 20
0.0808403921099235
 10
2.801757763134588
 20
0.0895598505946893
 10
2.801676007377757
 20
0.0995415195932203
 10
2.80231019556281
 20
0.1108648011558202
 10
2.803721271216417
 20
0.1236089788656542
 10
2.806250584026557
 20
0.1387300759392271
 10
2.809842617604573
 20
0.1549186581740756
 10
2.814314185969067
 20
0.1719068769259504
 10
2.819511627164843
 20
0.1893865309561793
 10
2.825261872975914
 20
0.2070996524516211
 10
2.831401499083106
 20
0.224758157237245
 10
2.837746964103608
 20
0.2420641987740506
 10
2.844145198417926
 20
0.2587595723146165
 10
2.850422541474365
 20
0.2745363135545489
 10
2.856405925056925
 20
0.2891364546807153
 10
2.861941805677552
 20
0.3022617937526846
 10
2.866836761122321
 20
0.3136246019968496
 10
2.870947721070002
 20
0.3229665561986543
 10
2.87408102637238
 20
0.3299799289879832
 10
2.876093488241075
 20
0.3343963978520232
 10
2.876801802227561
 20
0.3359381148482807
 10
2.875007759139855
 20
0.3339192266890567
 10
2.869920111277465
 20
0.328239099997834
 10
2.861974633355217
 20
0.3193826063018452
 10
2.85163757185127
 20
0.3078742589199006
 10
2.839325058285361
 20
0.2942291642082715
 10
2.825493221370258
 20
0.2789619546546564
 10
2.810588190520462
 20
0.2625873812139012
 10
2.795045977385086
 20
0.2456103140097436
 10
2.779322710676893
 20
0.2285453855298769
 10
2.763844521213869
 20
0.2119075836634359
 10
2.749057538410539
 20
0.1962116593652627
 10
2.735418009446796
 20
0.1819822444213113
 10
2.723361827504604
 20
0.1697142096570623
 10
2.713335121998476
 20
0.1599223060273598
 10
2.70577414151181
 20
0.153131402252443
 10
2.701124896991956
 20
0.1498462499889044
 10
2.702367060850932
 20
0.1500215467300272
 10
2.701299838331649
 20
0.1485740882351703
 10
2.698217710834832
 20
0.1458804122907846
 10
2.693395398098985
 20
0.1423372922141119
 10
2.68713726235596
 20
0.1383111480262045
 10
2.679727904175358
 20
0.1341886352789121
 10
2.671451924126813
 20
0.1303564095240777
 10
2.662593804312791
 20
0.1271911270152959
 10
2.653458025432271
 20
0.1250692070718724
 10
2.644329188054875
 20
0.1243773052456536
 10
2.635491774283089
 20
0.1254920777902342
 10
2.627230384686512
 20
0.128800180257457
 10
2.619849499964139
 20
0.134678031966633
 10
2.613623602920192
 20
0.1435024076384934
 10
2.608857411187933
 20
0.1556697251888544
 10
2.605825289104444
 20
0.1715467600402007
 10
2.604580816240094
 20
0.1846824247470149
 10
2.603939311007721
 20
0.1972209043612594
 10
2.603820186685588
 20
0.2091131501288146
 10
2.604153211251656
 20
0.2203399927231668
 10
2.604857916451329
 20
0.2308623826884535
 10
2.605883950391927
 20
0.2406509144656272
 10
2.607140727053455
 20
0.2496566577677122
 10
2.608558014413873
 20
0.2578604432681981
 10
2.61008534211335
 20
0.2652228661097915
 10
2.611632361066192
 20
0.2717149946020143
 10
2.613138720081444
 20
0.2773075416529718
 10
2.614523832437384
 20
0.281951458508539
 10
2.615727465410223
 20
0.2856274573750657
 10
2.616679031576467
 20
0.2882863710312886
 10
2.617298299615825
 20
0.2899091486178449
 10
2.61752479987021
 20
0.2904565037445792
 10
2.616043933641172
 20
0.2887039241567493
 10
2.611824399661301
 20
0.2837035608706735
 10
2.605211268158306
 20
0.2758813558283553
 10
2.596529255361957
 20
0.2656334900113197
 10
2.586133193863915
 20
0.2533657882979217
 10
2.574358154593632
 20
0.2395043110972992
 10
2.561538853079127
 20
0.2244451209238427
 10
2.548010241782719
 20
0.208604278888437
 10
2.534117153997819
 20
0.1923877283365751
 10
2.520194542186736
 20
0.1762115303791543
 10
2.506587121175734
 20
0.1604716290634105
 10
2.493629843427129
 20
0.1455840855002322
 10
2.481657661403218
 20
0.1319649608005147
 10
2.471015408397434
 20
0.1200201983097475
 10
2.462037799937789
 20
0.1101458605423193
 10
2.455070024719127
 20
0.102777888738478
 10
2.450980030098541
 20
0.0994261065254474
 10
2.445137670473833
 20
0.0958850707990564
 10
2.43788671293413
 20
0.09247073122053
 10
2.429580568465404
 20
0.0894689210891979
 10
2.420583239687566
 20
0.0872153517284993
 10
2.411238019821183
 20
0.0859859756066559
 10
2.40189867525364
 20
0.0860966239177472
 10
2.392928971670578
 20
0.0878630093887161
 10
2.384682320057962
 20
0.0915709653188817
 10
2.377502487504912
 20
0.0975364413694777
 10
2.371753121229936
 20
0.1060651509691848
 10
2.367777751387876
 20
0.1174530451827298
 10
2.365950261429773
 20
0.1320257175681583
 10
2.36660394527793
 20
0.1500592390608286
 10
2.370112686383393
 20
0.1718792032187935
 10
2.376810134069884
 20
0.1977916788721678
 10
2.375675759674251
 20
0.1965850328053609
 10
2.372424995304001
 20
0.1931633035628479
 10
2.367281734936369
 20
0.1878538617098098
 10
2.360459754783221
 20
0.1809741969803333
 10
2.35218306728894
 20
0.1728616792378492
 10
2.342675329496501
 20
0.1638236804510473
 10
2.332160435383158
 20
0.1541875711851119
 10
2.32085216116075
 20
0.1442708411741194
 10
2.308974519273689
 20
0.1344108602815091
 10
2.296751048297778
 20
0.124905001177714
 10
2.284405879144571
 20
0.1161006330244234
 10
2.272162668857028
 20
0.1083051277903202
 10
2.26023531211414
 20
0.1018459745077358
 10
2.248837585127773
 20
0.0970406629107483
 10
2.23821338047167
 20
0.0942163266302565
 10
2.228566475059444
 20
0.0936905738674821
 10
2.21468853764027
 20
0.0956351182844415
 10
2.203175480637455
 20
0.098821733800941
 10
2.193814949444863
 20
0.1030529222619272
 10
2.186364354627286
 20
0.10811154231728
 10
2.180601342280347
 20
0.1138002142790846
 10
2.176293322267099
 20
0.1199016783300699
 10
2.173217703748868
 20
0.1261985561858232
 10
2.171142251990133
 20
0.1325035859238319
 10
2.169844257685085
 20
0.1385893899614299
 10
2.169081368332797
 20
0.144258825544993
 10
2.168640873925724
 20
0.149284396624715
 10
2.168290539728346
 20
0.1534788412780799
 10
2.167787776305473
 20
0.1566250181549602
 10
2.166919992116675
 20
0.1585054305038014
 10
2.165454833959302
 20
0.1589228171038357
 10
2.16316959252753
 20
0.1576498003723969
 10
2.159839733450112
 20
0.1551490727733675
 10
2.1555125988829
 20
0.1520401169298076
 10
2.150329245205696
 20
0.1484112679859955
 10
2.144400849370704
 20
0.1443612157858833
 10
2.137878348588841
 20
0.139968177708349
 10
2.13087303827946
 20
0.1353408428956051
 10
2.123535855653472
 20
0.1305574287265294
 10
2.115997857792443
 20
0.1257063888125369
 10
2.108370340115719
 20
0.1208964122958349
 10
2.100804121367069
 20
0.1161957172570549
 10
2.093430495562351
 20
0.1117127559041116
 10
2.08637040201772
 20
0.107526101017319
 10
2.079755134749035
 20
0.1037442048045953
 10
2.073725513201814
 20
0.1004354038137123
 10
2.068412831391903
 20
0.0977081502525916
 10
2.063938028635469
 20
0.0956410169015385
 10
2.050744622371979
 20
0.0903669453087002
 10
2.037799847367935
 20
0.0858199792768506
 10
2.025103822090493
 20
0.0820101181042414
 10
2.012696780666942
 20
0.0789568865188102
 10
2.000598958628074
 20
0.0766800461827746
 10
1.988830354570382
 20
0.0751793601618491
 10
1.977431202621175
 20
0.0744743531839678
 10
1.966411739012983
 20
0.0745849053784955
 10
1.955802198574851
 20
0.0755306599405046
 10
1.945622579903272
 20
0.077311379935713
 10
1.935893118529051
 20
0.0799468270263386
 10
1.92665393011233
 20
0.0834465266420654
 10
1.91791536935279
 20
0.0878403582105083
 10
1.909717433443439
 20
0.0931278478630944
 10
1.90207047708396
 20
0.0993388750274385
 10
1.895004379701966
 20
0.1064630850038615
 10
1.885892591521709
 20
0.1198719707203608
 10
1.880519852435497
 20
0.1348666722749563
 10
1.878472163332133
 20
0.1511120706799218
 10
1.87928552860918
 20
0.16827363928323
 10
1.882535594455774
 20
0.18598637966954
 10
1.88777860080026
 20
0.2039355268490492
 10
1.894570195235267
 20
0.2217563193406988
 10
1.9024864978185
 20
0.2391237559221491
 10
1.911083393076879
 20
0.2556930737088443
 10
1.919916647070166
 20
0.2711095105179755
 10
1.92854226279244
 20
0.2850383027632404
 10
1.936546241132504
 20
0.297144331456904
 10
1.943464349553629
 20
0.3070730713504446
 10
1.948872589646377
 20
0.3144895219232708
 10
1.952336845235919
 20
0.3190488018236834
  0
LWPOLYLINE
  5
289
330
282
100
AcDbEntity
  8
DIM
 62
     7
100
AcDbPolyline
 90
       64
 70
     1
 43
0.0
 10
2.347562840413928
 20
0.269943226421768
 10
2.358324278079322
 20
0.2835066905579637
 10
2.369060456535656
 20
0.297470482025675
 10
2.379518787049498
 20
0.311617577941913
 10
2.38943632618772
 20
0.3257010759960828
 10
2.398560129815464
 20
0.3394739554104404
 10
2.406637609199286
 20
0.3527191933019971
 10
2.413405820906064
 20
0.3651898873601578
 10
2.418611820800933
 20
0.3766390168071769
 10
2.420003308031994
 20
0.3801327774294574
 10
2.421332903999264
 20
0.3834672600825559
 10
2.422530258213548
 20
0.3866132961417161
 10
2.423585134442305
 20
0.3895510054775766
 10
2.424447299259995
 20
0.3922609818293452
 10
2.425076518539327
 20
0.3947237004690844
 10
2.425442438984106
 20
0.3969095189034668
 10
2.425494708701648
 20
0.3987890315734521
 10
2.425193212031807
 20
0.4003527130493528
 10
2.424507477211257
 20
0.4015609215395895
 10
2.423397388579836
 20
0.40240413161448
 10
2.421822593543119
 20
0.4028528192478369
 10
2.419732858675558
 20
0.4028875781788717
 10
2.417107948446357
 20
0.4024886467453613
 10
2.413907391793941
 20
0.4016165016228684
 10
2.410071074461654
 20
0.4002618543159962
 10
2.408916298009813
 20
0.3998655068090446
 10
2.405611128156323
 20
0.398604573726141
 10
2.400383534819553
 20
0.3963063422527231
 10
2.393471842617579
 20
0.3928279790018418
 10
2.385094377571938
 20
0.3880268875208266
 10
2.375509344430057
 20
0.3817499981901946
 10
2.364934950746338
 20
0.3738447152590236
 10
2.3535995218406
 20
0.3641683238075135
 10
2.341741263863745
 20
0.3525679911504529
 10
2.329598501433842
 20
0.3389008839008962
 10
2.317389323638153
 20
0.3230044070096714
 10
2.305372172158385
 20
0.3047454894537971
 10
2.293755136783545
 20
0.2839616546512431
 10
2.282776542131699
 20
0.2605100692150604
 10
2.272684593652016
 20
0.2342377819929062
 10
2.26369773583319
 20
0.2050121958303652
 10
2.263674064755264
 20
0.2047024545188343
 10
2.263664113515297
 20
0.2038625134656495
 10
2.263709419379139
 20
0.2026218896795235
 10
2.263851282678373
 20
0.2010901015726603
 10
2.264141239977107
 20
0.1993965476866233
 10
2.264640590203427
 20
0.197650509499331
 10
2.265390989090334
 20
0.1959915033177495
 10
2.266433736969403
 20
0.1945290475540773
 10
2.267830369703005
 20
0.1933924222827432
 10
2.2696323053881
 20
0.1927010267470539
 10
2.271880962823416
 20
0.1925743786574703
 10
2.274637759404178
 20
0.1931317587901624
 10
2.277934233097987
 20
0.1945028026209829
 10
2.28183168283293
 20
0.1967967916278486
 10
2.286371764342
 20
0.2001532421177199
 10
2.291625775851542
 20
0.2046813171013735
 10
2.293286510981978
 20
0.2064217649823892
 10
2.296984826372451
 20
0.2104782367587745
 10
2.302467659420941
 20
0.2165937123545341
 10
2.309472422095772
 20
0.224551287353826
 10
2.317736170963812
 20
0.2341040594460502
 10
2.32701596118845
 20
0.2450048893863226
 10
2.337039205439737
 20
0.2570369912259416
  0
LWPOLYLINE
  5
28A
330
282
100
AcDbEntity
  8
DIM
 62
     7
100
AcDbPolyline
 90
      224
 70
     1
 43
0.0
 10
3.702698987976752
 20
0.6056420682589341
 10
3.707829143192718
 20
0.6132218246837873
 10
3.711171674897251
 20
0.6210127733939342
 10
3.71276551407908
 20
0.6289244468365425
 10
3.712609476066774
 20
0.636856852029089
 10
3.710722493252561
 20
0.6447197583530145
 10
3.707133497326907
 20
0.6524228167226287
 10
3.701841185151252
 20
0.6598560348571514
 10
3.69488460618146
 20
0.6669389445019985
 10
3.686262575746106
 20
0.6735715526746465
 10
3.676003907068526
 20
0.6796535109911482
 10
3.664117533242688
 20
0.68509470730009
 10
3.65063238595907
 20
0.6898047925157727
 10
3.637593464206517
 20
0.6933495096456479
 10
3.622721116859537
 20
0.6966159273150332
 10
3.606213908277474
 20
0.6994816846020573
 10
3.588270521286787
 20
0.70183441988309
 10
3.569109281909049
 20
0.7035315367054676
 10
3.548928754503577
 20
0.7044506741473171
 10
3.527917504131458
 20
0.7044695897539004
 10
3.506294212215671
 20
0.7034756849673105
 10
3.484257206181268
 20
0.7013266002691676
 10
3.462015049685845
 20
0.6978998562704533
 10
3.43975630779046
 20
0.6930732105164328
 10
3.417699543450964
 20
0.6867240651509441
 10
3.396033203261303
 20
0.6787201784210044
 10
3.374975850177307
 20
0.6689389524704481
 10
3.354726048558305
 20
0.657258026377404
 10
3.335482362763642
 20
0.6435550392199918
 10
3.334000974607747
 20
0.6426025219594785
 10
3.329897378616351
 20
0.6397909387863479
 10
3.323652725776987
 20
0.6352145962602869
 10
3.315787571934485
 20
0.6289173305811478
 10
3.306773187245255
 20
0.6210035660740001
 10
3.297120128255869
 20
0.6115172574058434
 10
3.287309545953874
 20
0.6005527111363609
 10
3.277862351585504
 20
0.5881837613601544
 10
3.269259340736873
 20
0.5744747167421523
 10
3.261991426759472
 20
0.5594997667783943
 10
3.256559522303057
 20
0.5433329824977644
 10
3.253464658484517
 20
0.5260584342274122
 10
3.253207747953595
 20
0.5077501929962338
 10
3.256269467829262
 20
0.4884625681708954
 10
3.263150967695537
 20
0.4682896293767982
 10
3.274362922566155
 20
0.447285330579188
 10
3.289683570872419
 20
0.4253022885814151
 10
3.307509778222851
 20
0.4029295365937991
 10
3.326883270525236
 20
0.3803184376375483
 10
3.346875416180687
 20
0.3575900014376856
 10
3.366537703460963
 20
0.3348754739517794
 10
3.384901740508446
 20
0.3123163373699285
 10
3.401048776555363
 20
0.2900234836517637
 10
3.41401053821125
 20
0.2681483942856389
 10
3.42283839528072
 20
0.2468123159308622
 10
3.42660395309916
 20
0.2261562569089683
 10
3.424348582172939
 20
0.2063015823464109
 10
3.415123770773803
 20
0.1873795382007479
 10
3.397991006471755
 20
0.1695212519624043
 10
3.372001896005698
 20
0.1528679688871968
 10
3.33619780988198
 20
0.1375410541015771
 10
3.289640354137759
 20
0.1236816343942184
 10
3.283585969600629
 20
0.1225032762667606
 10
3.276064886833268
 20
0.1216123138620624
 10
3.267297208864384
 20
0.1210161402012346
 10
3.257492920957254
 20
0.1207122674742891
 10
3.246852009076938
 20
0.1206983263383758
 10
3.235594576252111
 20
0.1209817098146093
 10
3.223930726213225
 20
0.1215699293912511
 10
3.212070207289286
 20
0.1224404986618008
 10
3.200233240976125
 20
0.1236108099456352
 10
3.188609932407672
 20
0.1250886116652943
 10
3.177430028509455
 20
0.1268511804799957
 10
3.166903869946182
 20
0.1289260264745042
 10
3.15723120574863
 20
0.1312907817094668
 10
3.148622258114357
 20
0.1339629569713967
 10
3.14130701090319
 20
0.1369398275160112
 10
3.135475450781896
 20
0.1402191424676094
 10
3.133840019561674
 20
0.141458603932886
 10
3.132247310278728
 20
0.142927575389395
 10
3.13071732152958
 20
0.1446258199028492
 10
3.129299812871195
 20
0.1465327465410304
 10
3.128024663731196
 20
0.1486380006042616
 10
3.126921990471473
 20
0.1509512259893651
 10
3.126021435585357
 20
0.1534420694001621
 10
3.125372995564113
 20
0.1561099385009328
 10
3.124996669004246
 20
0.1589545963573951
 10
3.124932216164467
 20
0.1619555705044764
 10
3.125219634237801
 20
0.165112387073604
 10
3.125888684184715
 20
0.1684046920668489
 10
3.126969363899959
 20
0.1718321300827803
 10
3.128491552811155
 20
0.1753843464217208
 10
3.130505128942417
 20
0.179050749449706
 10
3.133039971721359
 20
0.1828209844670532
 10
3.137158564981568
 20
0.1877425380385347
 10
3.141952608771511
 20
0.1922760625107447
 10
3.147292112213904
 20
0.1964230979565347
 10
3.153027204302119
 20
0.2001954206812933
 10
3.159048011222509
 20
0.2036043331218416
 10
3.165224542097817
 20
0.2066513753510293
 10
3.171417162153915
 20
0.2093682038036118
 10
3.177515760642904
 20
0.2117461223199033
 10
3.183370585025279
 20
0.2138069065035442
 10
3.188861762189155
 20
0.2155619772584956
 10
3.193859301257262
 20
0.2170128746576108
 10
3.19824344758485
 20
0.2181810189031079
 10
3.201874210996393
 20
0.2190680685349768
 10
3.204631718380007
 20
0.2196854444571823
 10
3.206376216494447
 20
0.2200548038062244
 10
3.20698759529354
 20
0.2201675688895577
 10
3.206451424136481
 20
0.2204939436593225
 10
3.204841607526738
 20
0.221363075687842
 10
3.202146369158924
 20
0.2226250939684782
 10
3.198343696495108
 20
0.2241102473652266
 10
3.193431812528153
 20
0.2256685464043038
 10
3.187378942356168
 20
0.2271503570133575
 10
3.180173072739478
 20
0.2283858095892395
 10
3.171812545138088
 20
0.2292349139564234
 10
3.162265229248674
 20
0.2295180381477948
 10
3.151529466531243
 20
0.2290951919878221
 10
3.139583362915011
 20
0.2278066236387595
 10
3.126425022925694
 20
0.2254923443285666
 10
3.112022553194265
 20
0.2219927206866394
 10
3.096364177415317
 20
0.2171578817063349
 10
3.079438000816338
 20
0.2108279570827651
 10
3.061242127923037
 20
0.20284295804389
 10
3.046836581403027
 20
0.1948630564492717
 10
3.03552216923979
 20
0.1861164812680691
 10
3.027050567517022
 20
0.1767461843543767
 10
3.021163808421576
 20
0.1669252339241876
 10
3.01762344886827
 20
0.1567864640661973
 10
3.016181520342215
 20
0.1465028245292554
 10
3.016589698927091
 20
0.1362172671674564
 10
3.01859977917374
 20
0.1260827431331446
 10
3.02195355633475
 20
0.1162523220458116
 10
3.026422942024588
 20
0.1068887174217625
 10
3.031749613028694
 20
0.0981349995822392
 10
3.037685482365048
 20
0.0901541189778357
 10
3.043992343882727
 20
0.0830989082937563
 10
3.050401875068928
 20
0.0771125563183777
 10
3.05669598683638
 20
0.07235765810087
 10
3.062596594308296
 20
0.0689975194932586
 10
3.077166737539705
 20
0.0630144913121242
 10
3.094242273289857
 20
0.0574718133632199
 10
3.113564996811334
 20
0.0525225552660302
 10
3.134867059459892
 20
0.0483499030019452
 10
3.15788013872271
 20
0.0450970453593413
 10
3.182356266084916
 20
0.0429369320870663
 10
3.208027237500836
 20
0.0420227512717535
 10
3.234635203624478
 20
0.0425375704276458
 10
3.261921959708416
 20
0.0446344591742296
 10
3.289609302408734
 20
0.0484667240652801
 10
3.31745938097594
 20
0.0542171956807529
 10
3.345193992066114
 20
0.0620391805744252
 10
3.372555049398975
 20
0.0720957476640329
 10
3.399284585161396
 20
0.0845599651655729
 10
3.425114276840552
 20
0.0995750218674161
 10
3.449796274388717
 20
0.1173238668166689
 10
3.46727347188159
 20
0.1321778618279428
 10
3.482914589444632
 20
0.147373632337505
 10
3.496609634797053
 20
0.1629124814839233
 10
3.508278376618548
 20
0.1787753584078331
 10
3.517810467226937
 20
0.1949335683530471
 10
3.525115794470785
 20
0.2113781782255941
 10
3.53009412843329
 20
0.2280903741003932
 10
3.532665237794162
 20
0.245051105118085
 10
3.532709012507218
 20
0.2622517935861239
 10
3.53013510348677
 20
0.2796635078140337
 10
3.524863516346798
 20
0.29728719553896
 10
3.516783784937956
 20
0.3150841627064551
 10
3.505795916277719
 20
0.3330555939879485
 10
3.491819560578647
 20
0.3511724392258237
 10
3.47474460709283
 20
0.3694260022603917
 10
3.4544707074363
 20
0.387787469868325
 10
3.44765812417431
 20
0.3935185787748487
 10
3.438441300339817
 20
0.4014383236194679
 10
3.427457347809536
 20
0.4112991393470154
 10
3.415353614692733
 20
0.4228733410316785
 10
3.402767331333272
 20
0.4359233629165367
 10
3.390335491140724
 20
0.4501916406481659
 10
3.378685325160702
 20
0.4654407269367909
 10
3.36846418150246
 20
0.4814429368565989
 10
3.360299172744468
 20
0.4979508238195614
 10
3.354837410061705
 20
0.5147167043033641
 10
3.352716123798018
 20
0.5315030125510827
 10
3.354562544999026
 20
0.5480723012729456
 10
3.361023784839709
 20
0.5641768869466369
 10
3.372737192131054
 20
0.5795892031134873
 10
3.390329760984407
 20
0.5940518038872132
 10
3.414448839509006
 20
0.607337004342007
 10
3.430941799612014
 20
0.6142421015202242
 10
3.447320432208258
 20
0.6199384682813492
 10
3.463446050260778
 20
0.6245377554461538
 10
3.479199728394824
 20
0.6281313783046194
 10
3.494442779573432
 20
0.6308309876775109
 10
3.509046397590758
 20
0.6327381166202067
 10
3.522881894708085
 20
0.6339642974863314
 10
3.535810583888448
 20
0.6346211810966534
 10
3.547713539757111
 20
0.6348001827411523
 10
3.558442075978852
 20
0.6346130717077419
 10
3.56788738494432
 20
0.6341611441175079
 10
3.575910779616563
 20
0.6335560507912224
 10
3.582373572958601
 20
0.6329094425496536
 10
3.587156721128557
 20
0.6323027353845277
 10
3.590121774023756
 20
0.6318675787131199
 10
3.591139925438341
 20
0.6317055055908014
 10
3.591209376248677
 20
0.6308146203092165
 10
3.591479856877761
 20
0.6283212410301485
 10
3.592024561026207
 20
0.6244945195364071
 10
3.592947035690812
 20
0.6196332501041333
 10
3.594330236936151
 20
0.6139864674524916
 10
3.59624759539713
 20
0.6078433219607966
 10
3.598792303370856
 20
0.6014727284775763
 10
3.602047553856209
 20
0.595143720318502
 10
3.606106894551714
 20
0.5891552102268527
 10
3.611043282223718
 20
0.5837563513889368
 10
3.616950027636463
 20
0.5792260579515354
 10
3.623910560723118
 20
0.5758533618268196
 10
3.632008074482527
 20
0.573907296330459
 10
3.641345760510077
 20
0.5736566578438361
 10
3.651987050142395
 20
0.5753907152134108
 10
3.664024898742333
 20
0.5793583846912079
 10
3.676444283099286
 20
0.5851416616337719
 10
3.687020431439556
 20
0.5915068156998178
 10
3.695762395324265
 20
0.5983737340361888
  0
LWPOLYLINE
  5
28B
330
282
100
AcDbEntity
  8
DIM
 62
     7
100
AcDbPolyline
 90
      592
 70
     1
 43
0.0
 10
4.214692820780044
 20
0.3893714468805509
 10
4.217022772382819
 20
0.3935741395327383
 10
4.219117242578953
 20
0.3981596487299246
 10
4.220723642635014
 20
0.4029109515891296
 10
4.221549386624545
 20
0.4076114990959372
 10
4.221332241917295
 20
0.4120743847292588
 10
4.219809502014413
 20
0.4160727047749991
 10
4.216698935689137
 20
0.4194197896463603
 10
4.211728074078678
 20
0.421908852692889
 10
4.204624211385926
 20
0.4233131086676352
 10
4.195125233447782
 20
0.423455650347762
 10
4.182958315999997
 20
0.4220996931880681
 10
4.167841346282962
 20
0.4190685669000001
 10
4.165969415510105
 20
0.4197607917056843
 10
4.163881431941973
 20
0.4224757179697321
 10
4.161412786587973
 20
0.4268252685345857
 10
4.158408869755788
 20
0.4324212477755474
 10
4.154735425750985
 20
0.4389052210283904
 10
4.150217727817583
 20
0.445879230304449
 10
4.14471163943007
 20
0.4529949587048954
 10
4.138072313260074
 20
0.4598440935413813
 10
4.130145613483819
 20
0.4660784363822206
 10
4.120766812643573
 20
0.4712999107716023
 10
4.109801536577784
 20
0.4751400827470534
 10
4.097085294763004
 20
0.4772208744492641
 10
4.082473595272276
 20
0.4771639710846501
 10
4.065812065347572
 20
0.4746011756250184
 10
4.046956094594776
 20
0.4691441739785276
 10
4.0257311931922
 20
0.4604150067530171
 10
4.023410052859127
 20
0.4603324988493008
 10
4.016826605193486
 20
0.4600804733867428
 10
4.006591399724371
 20
0.4597017003609061
 10
3.993334510708827
 20
0.4591987156400706
 10
3.977636371314034
 20
0.4586046453229767
 10
3.960117293433057
 20
0.4579421423415458
 10
3.941387708127862
 20
0.4572439773930981
 10
3.922037692462453
 20
0.4565131602144757
 10
3.9026976760953
 20
0.4557822245687096
 10
3.883968090790105
 20
0.4550840596202619
 10
3.866449012909129
 20
0.4544215566388328
 10
3.850750873514336
 20
0.4538274863217389
 10
3.837484103667677
 20
0.4533346193662969
 10
3.827258779029676
 20
0.4529457285750667
 10
3.820675331364036
 20
0.4526937031125052
 10
3.818354191030962
 20
0.4526111952087906
 10
3.819487095762596
 20
0.4545379092168993
 10
3.822701913173268
 20
0.4599902068074613
 10
3.827743329785249
 20
0.4685210812376948
 10
3.834335678122897
 20
0.4796537648043416
 10
3.842213526943105
 20
0.4929313699335065
 10
3.851101208770216
 20
0.5078771289219315
 10
3.860743173192226
 20
0.5240240364303262
 10
3.870853990369525
 20
0.5409154418190774
 10
3.881177991422973
 20
0.5580743404506468
 10
3.891449745109447
 20
0.5750438447511393
 10
3.90138358465505
 20
0.591347305484435
 10
3.910734195880323
 20
0.6065375974406085
 10
3.919215793544225
 20
0.6201280720852918
 10
3.926562946403628
 20
0.6316618418445917
 10
3.932510104748288
 20
0.6406720198463578
 10
3.936791718867951
 20
0.6466917192184419
 10
3.939609622143663
 20
0.6507186189103589
 10
3.941642959937141
 20
0.6543647864075535
 10
3.94297184510156
 20
0.6576392732711423
 10
3.943676627424345
 20
0.6605711296587363
 10
3.943847419056929
 20
0.6631692886643102
 10
3.943564451319602
 20
0.6654528011472252
 10
3.942907837065519
 20
0.6674307186685944
 10
3.941968043847538
 20
0.6691419722171475
 10
3.940824947584516
 20
0.6705756147574871
 10
3.939569015829306
 20
0.6717705772783411
 10
3.938270243669663
 20
0.672726030509713
 10
3.937019098658431
 20
0.6734809054403304
 10
3.935905574479882
 20
0.6740341358659059
 10
3.934999903156061
 20
0.6744048911129532
 10
3.934402314603786
 20
0.6746119851065462
 10
3.934183159312233
 20
0.6746845864714466
 10
3.928534977405455
 20
0.6748715119859821
 10
3.922639182385225
 20
0.6752613851441254
 10
3.916565413937881
 20
0.6758233787811215
 10
3.910372957050078
 20
0.6764967863045986
 10
3.904111334344506
 20
0.6772410181858409
 10
3.897840067742109
 20
0.6780153664289799
 10
3.891618560696684
 20
0.6787691237399045
 10
3.885506216662037
 20
0.6794515828244947
 10
3.87956267602626
 20
0.6800320349851426
 10
3.873847342243138
 20
0.6804597729277298
 10
3.868399501702832
 20
0.680674326994172
 10
3.863308911155328
 20
0.6806546323836838
 10
3.858604739225391
 20
0.6803303386070745
 10
3.854356625599351
 20
0.6796706184995856
 10
3.850623973731003
 20
0.6786247647671094
 10
3.847466305541303
 20
0.6771520694137721
 10
3.841775690046929
 20
0.6720691278151208
 10
3.834839311978157
 20
0.6631306738499756
 10
3.826884026990789
 20
0.6509140605398259
 10
3.818136690740637
 20
0.6359966409061624
 10
3.808804278754152
 20
0.618966004203017
 10
3.799123527518261
 20
0.6003893856864853
 10
3.78930141255941
 20
0.5808543746105955
 10
3.779574551897383
 20
0.5609182069331951
 10
3.770159920356881
 20
0.5411683534411651
 10
3.761284373593717
 20
0.5221821671560037
 10
3.753154768667201
 20
0.5045372380334836
 10
3.746017841362501
 20
0.4888006828625624
 10
3.740070686374963
 20
0.4755702086626599
 10
3.735549803257228
 20
0.4653930520933738
 10
3.732672285301141
 20
0.4588666832398403
 10
3.731664988162513
 20
0.4565684551235485
 10
3.730143554755329
 20
0.4564564712519293
 10
3.725809356860715
 20
0.4561277941910476
 10
3.719032723915439
 20
0.4556080385513859
 10
3.710174222992279
 20
0.4549429360070772
 10
3.699593828828326
 20
0.4541282217409908
 10
3.687672225560014
 20
0.453219389791224
 10
3.674759388626164
 20
0.45221229380779
 10
3.661226002864971
 20
0.451162546295933
 10
3.647432043013502
 20
0.4500658824385156
 10
3.633738194611701
 20
0.4489780332079274
 10
3.620524549460292
 20
0.4479044961510042
 10
3.608131439101271
 20
0.4468712412796539
 10
3.59694931003505
 20
0.4459136455683357
 10
3.587318493803621
 20
0.445057679028956
 10
3.579619200674869
 20
0.4443188385066037
 10
3.574211879254427
 20
0.4437328563771584
 10
3.579851553877517
 20
0.4445160997273679
 10
3.581766750865099
 20
0.4449434409245008
 10
3.580546481076908
 20
0.4449278960211292
 10
3.576729640414271
 20
0.444373074107288
 10
3.570905358204086
 20
0.4432019905338081
 10
3.563622411178783
 20
0.4413081366253273
 10
3.555449930068746
 20
0.4386147646669603
 10
3.546956808670074
 20
0.435025128347311
 10
3.538702059947731
 20
0.4304525991203878
 10
3.531244578399572
 20
0.4248005491419402
 10
3.525163494054226
 20
0.4179921122299337
 10
3.521007583644134
 20
0.4099207797090135
 10
3.519355977197925
 20
0.4005096853971466
 10
3.520767687680574
 20
0.3896722007483397
 10
3.525811490421048
 20
0.3773015801529436
 10
3.535036517553209
 20
0.3633213128303598
 10
3.545920669334094
 20
0.3501014436929317
 10
3.555315088843698
 20
0.3402894621358001
 10
3.563325266611386
 20
0.3335040916868088
 10
3.570057403969371
 20
0.329424051663322
 10
3.575627346146688
 20
0.3276979450208035
 10
3.580150819905234
 20
0.3279643754164674
 10
3.583733908110083
 20
0.3298920628694191
 10
3.586502336821382
 20
0.3331194925697289
 10
3.588552071138813
 20
0.3373055037053998
 10
3.58999895629141
 20
0.3420986992318955
 10
3.59095883750821
 20
0.3471476821046746
 10
3.591547796952539
 20
0.3521210538757096
 10
3.591871443620895
 20
0.3566475373711029
 10
3.592045859676609
 20
0.3603957341428199
 10
3.592176772583322
 20
0.3630043663152147
 10
3.592380264504356
 20
0.364142035440258
 10
3.592653799571444
 20
0.3644388157749745
 10
3.592908046844883
 20
0.3647958288334898
 10
3.593182885050531
 20
0.3652026014489831
 10
3.593507956681726
 20
0.3656287803252685
 10
3.593893379503867
 20
0.3660842462934521
 10
3.59437867684138
 20
0.3665285282919619
 10
3.594983965757926
 20
0.3669713886847585
 10
3.595729007915714
 20
0.3673925919410585
 10
3.596653563573475
 20
0.3677716655957841
 10
3.597767632029452
 20
0.3681084911817951
 10
3.59911097354238
 20
0.3683825962340137
 10
3.60070334977447
 20
0.3685737452216529
 10
3.602574640153335
 20
0.3686715834450318
 10
3.60473484397724
 20
0.3686759924370104
 10
3.607233602335995
 20
0.3685563819671156
 10
3.610070796762485
 20
0.3683027527370992
 10
3.613558419443933
 20
0.3680814203358285
 10
3.617867643122053
 20
0.3679903638044042
 10
3.622858477621321
 20
0.3680312416828197
 10
3.628380578066519
 20
0.3681758330834572
 10
3.634283836516729
 20
0.368415915715202
 10
3.640437906693236
 20
0.3687230317561507
 10
3.646692562187979
 20
0.3690789596169353
 10
3.652897695060026
 20
0.369475477006441
 10
3.658923077497824
 20
0.3698941254010144
 10
3.664608483795049
 20
0.3703168016784346
 10
3.669813686841884
 20
0.3707251657821899
 10
3.674398341061369
 20
0.3710908783575171
 10
3.67821233851258
 20
0.3714057171133049
 10
3.681125569851097
 20
0.3716612228241516
 10
3.682967573138064
 20
0.3718194122384713
 10
3.683618356794454
 20
0.3718817069619753
 10
3.68260046802186
 20
0.3695336008215655
 10
3.679721528460063
 20
0.3628872403890053
 10
3.675248983293592
 20
0.3525695013084764
 10
3.669450040772701
 20
0.3391872606276536
 10
3.662592027614785
 20
0.3233573946924721
 10
3.654932152771834
 20
0.3056868990177506
 10
3.646737742961242
 20
0.2867926499494224
 10
3.638276006433258
 20
0.2672815245351625
 10
3.629824269203524
 20
0.2477702806537589
 10
3.621629740925797
 20
0.2288660322871774
 10
3.61396986608284
 20
0.2111955366124576
 10
3.607111852924923
 20
0.1953656706772744
 10
3.601312910404033
 20
0.1819834299964533
 10
3.596840365237568
 20
0.1716656909159244
 10
3.593961544142914
 20
0.1650293297816159
 10
3.59294353690317
 20
0.1626712243429544
 10
3.592798523049374
 20
0.1630929718766829
 10
3.592372533049093
 20
0.1642781016247135
 10
3.591684499294551
 20
0.1661363829684834
 10
3.590763235009077
 20
0.1685674675240492
 10
3.589617554819497
 20
0.1714712438417454
 10
3.588276508883438
 20
0.1747673621341264
 10
3.586758674191685
 20
0.1783355938878799
 10
3.585082983136459
 20
0.1820857084844558
 10
3.583268368109983
 20
0.1859274753052933
 10
3.581343642335596
 20
0.1897605459664486
 10
3.579317501972973
 20
0.1934748097200014
 10
3.577219115646883
 20
0.196999916076761
 10
3.575057061049854
 20
0.2002157549905572
 10
3.572870150703479
 20
0.2030218596102973
 10
3.570667554636017
 20
0.2053481163810762
 10
3.568467731371114
 20
0.2070642974913301
 10
3.566460667575569
 20
0.2081681520653511
 10
3.564806233554257
 20
0.208647785330605
 10
3.563464669048471
 20
0.2085236697521697
 10
3.562436092525345
 20
0.2078058046282933
 10
3.561680388324731
 20
0.2064846645292988
 10
3.561177913251555
 20
0.204590484284223
 10
3.560908668709302
 20
0.2021235008273532
 10
3.560842775270373
 20
0.1990940688583684
 10
3.560960352805395
 20
0.1955124246098077
 10
3.561231521886753
 20
0.1913889227813463
 10
3.561646283216205
 20
0.1867236818401316
 10
3.562174875833264
 20
0.1815370557840925
 10
3.562787301843194
 20
0.1758294000146563
 10
3.563463799583757
 20
0.1696209500626153
 10
3.564184370458463
 20
0.1629119428622516
 10
3.564929134337937
 20
0.1557126146461041
 10
3.565044864456965
 20
0.1511309221051817
 10
3.564884430881193
 20
0.1443423463290863
 10
3.564603154105817
 20
0.1357950787320323
 10
3.56438623405365
 20
0.1259269560285521
 10
3.564408989816392
 20
0.1151859326985676
 10
3.564856621316849
 20
0.1040098454566127
 10
3.565904210712446
 20
0.0928266501861082
 10
3.567727195562007
 20
0.0820943006652311
 10
3.570490777191849
 20
0.0722508705427991
 10
3.574400154121278
 20
0.0637339595990572
 10
3.579600529080103
 20
0.0569818784171066
 10
3.58629721905477
 20
0.0524422260754491
 10
3.594655306904456
 20
0.050543076924642
 10
3.604850230187992
 20
0.0517423847428695
 10
3.61705718952993
 20
0.0564781047118039
 10
3.631471384151346
 20
0.0651879550788337
 10
3.633037386911809
 20
0.0665294972340416
 10
3.635295188667683
 20
0.0688629134487808
 10
3.638153966464678
 20
0.0721192748395669
 10
3.64152313428282
 20
0.0762496511194169
 10
3.645342340931179
 20
0.0812247551964376
 10
3.649511001091504
 20
0.0869957752507862
 10
3.653958290406045
 20
0.0934935454646961
 10
3.658603977554491
 20
0.1006990149788027
 10
3.663357358049722
 20
0.1085532542078784
 10
3.668157725299373
 20
0.1169969781652629
 10
3.672894731621241
 20
0.1260014920947672
 10
3.677517788188339
 20
0.1355173918408425
 10
3.681926309682452
 20
0.1454958655836531
 10
3.686039590914695
 20
0.1558778652708259
 10
3.689787281395886
 20
0.1666342222776009
 10
3.693088794404282
 20
0.1777158878498604
 10
3.696163618282291
 20
0.187390140178552
 10
3.700623343289663
 20
0.1991581329070779
 10
3.706273481008196
 20
0.2126421435775558
 10
3.712869546528423
 20
0.2274650420678306
 10
3.720207052133872
 20
0.2432492243871636
 10
3.728061629978739
 20
0.2596273227773604
 10
3.736198794451802
 20
0.2762220886491136
 10
3.744424175601992
 20
0.2926657988428047
 10
3.752503169350958
 20
0.3085712054708711
 10
3.760221525618277
 20
0.3235808216062281
 10
3.76734452185844
 20
0.3372974000630666
 10
3.773677906587536
 20
0.3493632169800129
 10
3.778977194896086
 20
0.3594011422349084
 10
3.783037899067643
 20
0.3670335718370143
 10
3.785635651256377
 20
0.3718931380281383
 10
3.786545846682187
 20
0.3735924744535808
 10
3.787857531760366
 20
0.3737269447316951
 10
3.791542249137151
 20
0.3741033193498495
 10
3.797279547399917
 20
0.3746853920635917
 10
3.804718977241257
 20
0.3754373120299004
 10
3.813520207119182
 20
0.3763331092368638
 10
3.823342787024529
 20
0.3773368143743205
 10
3.833846148481029
 20
0.3784024588338521
 10
3.844689959946677
 20
0.3795040726035488
 10
3.85553388987946
 20
0.3806156856714953
 10
3.86603725133596
 20
0.3816813301310287
 10
3.875859712774172
 20
0.3826750359702302
 10
3.88465094335384
 20
0.3835709516443373
 10
3.892090491662322
 20
0.3843328709088975
 10
3.897827789925088
 20
0.3849149436226398
 10
3.90152250660013
 20
0.3852911997736505
 10
3.902824192380052
 20
0.3854257885189085
 10
3.900616979451157
 20
0.383141776459718
 10
3.894459099332635
 20
0.3766042683376618
 10
3.88501631059912
 20
0.3662954109356917
 10
3.872984488187128
 20
0.3527069949335857
 10
3.859049270800653
 20
0.3363109308817567
 10
3.843876535481463
 20
0.3175993648614099
 10
3.828161920231799
 20
0.2970440889558201
 10
3.812571420560566
 20
0.2751472485444442
 10
3.797810555301126
 20
0.2523705179451561
 10
3.784545201495234
 20
0.2292060432391629
 10
3.773451117015781
 20
0.206135852742273
 10
3.765234176097536
 20
0.1836516186671257
 10
3.76054990108259
 20
0.1622156076673047
 10
3.76009428537462
 20
0.1423296097208446
 10
3.764552967677602
 20
0.1244655353781585
 10
3.774591825033319
 20
0.1091155307204481
 10
3.790953270971833
 20
0.0947906961035656
 10
3.808132001674479
 20
0.0852965183379109
 10
3.825871637459265
 20
0.080095996996425
 10
3.843915917111324
 20
0.0786621309503115
 10
3.861998224716131
 20
0.0804380396431466
 10
3.879872298357071
 20
0.0848966034789918
 10
3.897261641288494
 20
0.0914910596668168
 10
3.913929872424922
 20
0.0996841708452827
 10
3.929600613487835
 20
0.1089391735216214
 10
3.944017366328104
 20
0.1187090679705243
 10
3.956923751263715
 20
0.1284568537649342
 10
3.968073387910934
 20
0.1376454120106558
 10
3.97718977952411
 20
0.1457279799166642
 10
3.984026545719494
 20
0.1521674385887604
 10
3.988317425983979
 20
0.1564369053652861
 10
3.989805685234138
 20
0.1579693819244277
 10
3.98958551179659
 20
0.1571119300847332
 10
3.989026761473596
 20
0.1546883793680038
 10
3.98824167742164
 20
0.1508874133024669
 10
3.987363093729427
 20
0.1459474749733207
 10
3.986503253553436
 20
0.1400572479087874
 10
3.985784873216964
 20
0.1334452943629625
 10
3.98534043140728
 20
0.1263200595262841
 10
3.985292407513419
 20
0.1188901070563393
 10
3.98576339939153
 20
0.1113739999089685
 10
3.986865768665232
 20
0.1039704209106471
 10
3.988732112488946
 20
0.0968978145500703
 10
3.991475029420584
 20
0.0903748622502203
 10
3.995236878978516
 20
0.0845998914361399
 10
4.000130378187805
 20
0.0798015828290684
 10
4.00626788867207
 20
0.0761786192554794
 10
4.013792006883974
 20
0.0739493267369298
 10
4.031480102747522
 20
0.0728397030520149
 10
4.049922218563978
 20
0.0754414071497962
 10
4.068974099340685
 20
0.081396122833187
 10
4.088481727721024
 20
0.0903656509687547
 10
4.108290730946926
 20
0.1019817945283048
 10
4.128247091661776
 20
0.1159063543783994
 10
4.148186437809258
 20
0.1317712519579874
 10
4.167964751331005
 20
0.1492381696664893
 10
4.187427777936093
 20
0.1679489097739655
 10
4.20641150096965
 20
0.1875653916141182
 10
4.224771428504737
 20
0.2077093003933665
 10
4.242343543886462
 20
0.2280425554454073
 10
4.258983710589305
 20
0.2482168398714162
 10
4.274527793491259
 20
0.267884073706842
 10
4.288831419132506
 20
0.2866759414563482
 10
4.301720453092777
 20
0.3042444816225345
 10
4.301225015639289
 20
0.3021002004540119
 10
4.299862959674982
 20
0.2960259100798161
 10
4.297870547818192
 20
0.2865488485630276
 10
4.295464044090792
 20
0.2741964909010264
 10
4.292859830981754
 20
0.2595063113894387
 10
4.290284171811194
 20
0.2430056665584903
 10
4.287943331302685
 20
0.2252221498727014
 10
4.28606380971064
 20
0.2067031164588027
 10
4.284861634122606
 20
0.1879560427176692
 10
4.284563304792968
 20
0.1695282837760317
 10
4.28538508574357
 20
0.1519473146312666
 10
4.28754335946342
 20
0.1357506095789969
 10
4.291264270805463
 20
0.1214555258512018
 10
4.296754202960443
 20
0.1095996562106514
 10
4.304249418546703
 20
0.1007102387204313
 10
4.313956300754995
 20
0.0953248661433115
 10
4.325208591434403
 20
0.095451572362558
 10
4.339569498192275
 20
0.1013518568550094
 10
4.35648910768301
 20
0.1121921757931705
 10
4.375437742091811
 20
0.1271587470117748
 10
4.395875842772774
 20
0.1454479061109453
 10
4.417263614145703
 20
0.1662359900943073
 10
4.439071378395809
 20
0.1887092167965854
 10
4.460749340644632
 20
0.2120440416885501
 10
4.481767823077376
 20
0.235426682604924
 10
4.501587267048151
 20
0.2580534751458394
 10
4.519667758509598
 20
0.2790907570166627
 10
4.53546973881582
 20
0.2977348638175172
 10
4.548463530152019
 20
0.3131720133831362
 10
4.558109336938002
 20
0.3245785427171413
 10
4.56386736359358
 20
0.3311307888231489
 10
4.565198169939975
 20
0.3320350865995412
 10
4.55717151967454
 20
0.314638955261902
 10
4.549506906145893
 20
0.2965684876570922
 10
4.542216697995129
 20
0.2780235512830167
 10
4.535323144694459
 20
0.2591938958721798
 10
4.528858495014354
 20
0.2402691526899474
 10
4.52282511829766
 20
0.2214493077013575
 10
4.517265262613094
 20
0.2029238737046413
 10
4.512191296601756
 20
0.1848927181976911
 10
4.507615351970464
 20
0.167535710081907
 10
4.503579913722219
 20
0.1510623607520163
 10
4.500087114265589
 20
0.1356526575765571
 10
4.497169439305324
 20
0.1215162304173969
 10
4.494849019846483
 20
0.1088328297087919
 10
4.493148223828434
 20
0.0978022044814981
 10
4.492079301425128
 20
0.0886142229351688
 10
4.491664620575924
 20
0.0814686341005597
 10
4.491768218988127
 20
0.0767070726582375
 10
4.492163100188221
 20
0.07205206794956
 10
4.49284950111047
 20
0.0675236185710286
 10
4.493817659390927
 20
0.0631418415862886
 10
4.495057694198465
 20
0.0589168547607368
 10
4.496549606936589
 20
0.0548488950286572
 10
4.498293871473869
 20
0.050977959583058
 10
4.500270489213804
 20
0.0473042853582282
 10
4.502479578623521
 20
0.0438378716524159
 10
4.50490137804082
 20
0.0405989539964082
 10
4.507526006634577
 20
0.0375976501556075
 10
4.510343702040835
 20
0.0348540771936534
 10
4.513354701193875
 20
0.0323882337070547
 10
4.516529006198936
 20
0.0302004750972351
 10
4.519876853288565
 20
0.0283106814935597
 10
4.523368481502274
 20
0.0267392068939607
 10
4.529080498205402
 20
0.0260314886003101
 10
4.53462818755338
 20
0.0283359284234219
 10
4.540008113999078
 20
0.0333625467139758
 10
4.545236366723287
 20
0.0407811296953664
 10
4.550319627944276
 20
0.0503115785493904
 10
4.55527410530999
 20
0.0616336787976941
 10
4.560086245507903
 20
0.0744475699598528
 10
4.564792491716744
 20
0.0884527992197324
 10
4.569379172156843
 20
0.1033395067986547
 10
4.573852613645044
 20
0.1187975959836649
 10
4.578239378528962
 20
0.1345367317240154
 10
4.582535675860043
 20
0.1502369364756415
 10
4.58675806868765
 20
0.165607993654941
 10
4.590902766063237
 20
0.1803299257178494
 10
4.594976213270768
 20
0.1941026352496511
 10
4.599004854190738
 20
0.2066257879013591
 10
4.603320157680023
 20
0.2188655246548752
 10
4.608184545244903
 20
0.2318688101481126
 10
4.613516600893646
 20
0.2455166005391884
 10
4.619195029908652
 20
0.2597003251530356
 10
4.625128298532814
 20
0.2742910593166599
 10
4.631194993581381
 20
0.2891702330567476
 10
4.637293818933272
 20
0.3042290387639461
 10
4.643333122364218
 20
0.3193285524670077
 10
4.649191727623772
 20
0.3343702027891204
 10
4.654777982487665
 20
0.3492150657590365
 10
4.659980710003701
 20
0.3637644515328056
 10
4.664698258649366
 20
0.3778795546063147
 10
4.668819451472451
 20
0.3914616851356154
 10
4.672242636950443
 20
0.4043720376165983
 10
4.674866518962261
 20
0.4165018044399158
 10
4.676589682919669
 20
0.4277321786979691
 10
4.676442344424174
 20
0.4313341769444606
 10
4.675289530498346
 20
0.4361681732262568
 10
4.673045204931888
 20
0.4417251510696314
 10
4.66959321515263
 20
0.4474864501040408
 10
4.664847643417417
 20
0.4529530531540118
 10
4.658702336452329
 20
0.4576061813818591
 10
4.651071376514209
 20
0.4609468176121148
 10
4.641858491160256
 20
0.4624460652416947
 10
4.63094788321969
 20
0.4616152617948046
 10
4.618263397313356
 20
0.4579352730323319
 10
4.603689117803341
 20
0.450907437180236
 10
4.587148652376193
 20
0.4399926214028938
 10
4.568526322328295
 20
0.4247121625227699
 10
4.547725973683967
 20
0.4045471632350335
 10
4.524661451765787
 20
0.3789786077677082
 10
4.49923683953235
 20
0.3475075974124682
 10
4.497867979525508
 20
0.3459237027563571
 10
4.49549781614602
 20
0.3433916037151423
 10
4.492217646216715
 20
0.3400202263653149
 10
4.488088294797123
 20
0.3358788549917886
 10
4.483210821074031
 20
0.3310562986074039
 10
4.477656286339495
 20
0.325641721626436
 10
4.471505751183812
 20
0.3197241699960163
 10
4.464830039964738
 20
0.3133728095339094
 10
4.45773021186909
 20
0.3066764492529597
 10
4.450267447357809
 20
0.2997343713328355
 10
4.442542687150542
 20
0.2926253854881295
 10
4.434616874773951
 20
0.2854287753020035
 10
4.426581070116583
 20
0.2782334682544469
 10
4.418516333768742
 20
0.2711285102925842
 10
4.410493490088185
 20
0.2641830672341872
 10
4.402603835897764
 20
0.2575060651557486
 10
4.395928076620414
 20
0.2519947642139666
 10
4.390082211039711
 20
0.2473136900196842
 10
4.385025649626939
 20
0.2434133199502089
 10
4.380717921320517
 20
0.2402541306811035
 10
4.377108437293465
 20
0.2377867180568192
 10
4.374156726484216
 20
0.235971558752917
 10
4.371822080896897
 20
0.2347491308484511
 10
4.370064029469929
 20
0.2340799110189877
 10
4.368842101141744
 20
0.2339243759400844
 10
4.368105588618213
 20
0.2342231221579443
 10
4.367814139304911
 20
0.2349466256463746
 10
4.367927045205959
 20
0.2360353644844384
 10
4.368403835259798
 20
0.2374498153476932
 10
4.369203919937689
 20
0.23914045561345
 10
4.370266829581566
 20
0.2410679988915554
 10
4.371571973259193
 20
0.2431826856250314
 10
4.373340946013847
 20
0.2464619592326009
 10
4.375763923388312
 20
0.251763626955384
 10
4.378768185550548
 20
0.2588585342035845
 10
4.38227077643598
 20
0.2674976462580325
 10
4.386168741383514
 20
0.277432165333849
 10
4.390379479730007
 20
0.2884430546066277
 10
4.394819916943731
 20
0.3002712800589506
 10
4.399407215427252
 20
0.3126778062699049
 10
4.404048656752024
 20
0.325433715583971
 10
4.4086614033206
 20
0.3382999725802431
 10
4.413152381303014
 20
0.3510176617084397
 10
4.417438990036117
 20
0.3633677461441565
 10
4.421438273455322
 20
0.3751011911682269
 10
4.425057276197797
 20
0.3859690805286284
 10
4.428203279834995
 20
0.395742496569845
 10
4.430803446067741
 20
0.404182285403822
 10
4.435398038098682
 20
0.4222691238248722
 10
4.437628201231255
 20
0.4374637700004876
 10
4.437695816904792
 20
0.4499238433598478
 10
4.43580264809146
 20
0.4597969640338917
 10
4.432140695399482
 20
0.4672508692171978
 10
4.426921839566432
 20
0.4724430598718073
 10
4.420337607331944
 20
0.4755012759992887
 10
4.41259011706964
 20
0.4766031356253376
 10
4.403871132453446
 20
0.4758963773480236
 10
4.394392534220934
 20
0.4735385021293919
 10
4.384346086046036
 20
0.4696772485675194
 10
4.373943668666328
 20
0.4644701176244457
 10
4.363367046457483
 20
0.4580649663653916
 10
4.352828218624225
 20
0.4506292950506463
 10
4.342528829671586
 20
0.4423007245128954
 10
4.332660880207782
 20
0.433246991946719
 10
4.332236170995493
 20
0.432851995636618
 10
4.331012158317022
 20
0.4316764136688498
 10
4.32904919336331
 20
0.4297495331353165
 10
4.326397746494194
 20
0.4271107588933152
 10
4.323138167497106
 20
0.4237891411004675
 10
4.319320689797606
 20
0.4198040860175567
 10
4.315005664586635
 20
0.41518488073649
 10
4.310263560820516
 20
0.4099706931802789
 10
4.305134731093694
 20
0.4041910473751038
 10
4.299709406024717
 20
0.3978648757131928
 10
4.294028175142315
 20
0.3910417008172349
 10
4.288161152001393
 20
0.3837306927154866
 10
4.282168806260024
 20
0.3759711377980981
 10
4.276111489109162
 20
0.3677923231569729
 10
4.270049551739745
 20
0.359223535884011
 10
4.264043345342713
 20
0.3502940630711198
 10
4.247848956010066
 20
0.3263842355070636
 10
4.231887771500652
 20
0.3044317825904468
 10
4.21627907259063
 20
0.284375286926041
 10
4.201122259926819
 20
0.2661635673511604
 10
4.186546968985055
 20
0.2497650858981988
 10
4.172652481945021
 20
0.2351186621062169
 10
4.159558198050028
 20
0.2221728778782452
 10
4.14736363641402
 20
0.2108865513498497
 10
4.136198314045707
 20
0.2012181452551669
 10
4.126151395359372
 20
0.193096598302148
 10
4.117352397363703
 20
0.1864803732249367
 10
4.109900957639815
 20
0.1813382874573488
 10
4.103916238496722
 20
0.1775989243059115
 10
4.099497759048389
 20
0.1752211019061853
 10
4.09677491783637
 20
0.1741532836940607
 10
4.09584723397463
 20
0.1743542878051034
 10
4.097093726345342
 20
0.1841802104981518
 10
4.100421279774508
 20
0.1957716033469854
 10
4.105556596129339
 20
0.2088516846133945
 10
4.112206141746234
 20
0.2231239108969429
 10
4.12010638085637
 20
0.2382913833957705
 10
4.1289638982633
 20
0.2540675580076943
 10
4.138505040432796
 20
0.2701456550997499
 10
4.148446509933805
 20
0.2862490114008604
 10
4.158504653933846
 20
0.3020709657451999
 10
4.168395938067597
 20
0.3173148562651917
 10
4.177837064903989
 20
0.3317040196897647
 10
4.18655426244166
 20
0.344921677087699
 10
4.194274351014961
 20
0.3567010460190314
 10
4.200693560727756
 20
0.3667257029539641
 10
4.205548474278366
 20
0.374708748388894
 10
4.208545558003194
 20
0.380353638923383
 10
4.209073577277997
 20
0.3810274309131216
 10
4.210445635897691
 20
0.3828813066220444
 10
4.212409618997398
 20
0.3857382403601708
  0
LWPOLYLINE
  5
28C
330
282
100
AcDbEntity
  8
DIM
 62
     7
100
AcDbPolyline
 90
       64
 70
     1
 43
0.0
 10
3.937997206425137
 20
0.1955457790840462
 10
3.946398127964997
 20
0.2023267316189905
 10
3.954705098346593
 20
0.2096188330362256
 10
3.962867173341535
 20
0.2173426812854409
 10
3.970863288149047
 20
0.22540851961665
 10
3.978652616306099
 20
0.2337468268106626
 10
3.986214093011916
 20
0.2422678461174925
 10
3.993506773336349
 20
0.2508920570196906
 10
4.000489830816391
 20
0.259549938298063
 10
4.007142082184117
 20
0.2681417339043719
 10
4.013422700976519
 20
0.2765979226194233
 10
4.019310622392808
 20
0.284828747693231
 10
4.024755020671719
 20
0.2927648063737447
 10
4.029734949479625
 20
0.3003263412092281
 10
4.034219226250328
 20
0.3074137146185905
 10
4.034861739557321
 20
0.3084661768033445
 10
4.036728691353069
 20
0.3115742776692034
 10
4.03952583717114
 20
0.316381478026214
 10
4.042968931843333
 20
0.3225311202172971
 10
4.046753731604951
 20
0.3296667835196416
 10
4.050615989884313
 20
0.3374315733418776
 10
4.054241700552758
 20
0.3454891860248459
 10
4.057356380806055
 20
0.3534628468478136
 10
4.05966602311205
 20
0.3610160152173343
 10
4.060886382302555
 20
0.3677920334763236
 10
4.060733094742232
 20
0.3734242446694385
 10
4.058902035133527
 20
0.3775662273721299
 10
4.055109076775401
 20
0.3798713232255544
 10
4.04906985603251
 20
0.3799728752743796
 10
4.040490246905548
 20
0.3775243436269076
 10
4.029095885057458
 20
0.3721589528606515
 10
4.018636007756512
 20
0.3663224584634044
 10
4.007687160636621
 20
0.3597317038218275
 10
3.996369809145406
 20
0.3524252645232266
 10
3.984764421537434
 20
0.3444421900234662
 10
3.972991344793165
 20
0.3358110566115915
 10
3.9611609265948
 20
0.3265605590437968
 10
3.94936375296232
 20
0.3167396276070562
 10
3.937720052409041
 20
0.3063668392921652
 10
3.926320529422085
 20
0.2955011236843532
 10
3.915285294047613
 20
0.2841510584761657
 10
3.904704813838478
 20
0.2723555746563271
 10
3.894709672007664
 20
0.2601631286432458
 10
3.885380218342618
 20
0.2476027705945398
 10
3.876826800525535
 20
0.2347031952663965
 10
3.869169884004023
 20
0.2215029782461144
 10
3.862499936330905
 20
0.2080410505224197
 10
3.858808898851535
 20
0.199534180220958
 10
3.855724927295852
 20
0.1916201597860763
 10
3.853318727554466
 20
0.1843581557372946
 10
3.851681241048787
 20
0.177827096256344
 10
3.850893409901985
 20
0.1721060279920987
 10
3.851026058471802
 20
0.1672641167623343
 10
3.852170128179665
 20
0.1633802907487833
 10
3.854396443383336
 20
0.1605237157692105
 10
3.857796063971363
 20
0.1587833193036054
 10
3.862439695834353
 20
0.158218267871483
 10
3.868408399562632
 20
0.1589176074199727
 10
3.875792879643306
 20
0.1609402675343077
 10
3.884664078901288
 20
0.1643654133305041
 10
3.895102939459732
 20
0.1692720914574437
 10
3.907200402740045
 20
0.1757392300968572
 10
3.921017293801746
 20
0.1838361135336566
 10
3.929523280060671
 20
0.1893557328831186
  0
LWPOLYLINE
  5
28D
102
{ACAD_REACTORS
330
2D8
102
}
330
282
100
AcDbEntity
  8
DIM
 62
     7
100
AcDbPolyline
 90
       64
 70
     1
 43
0.0
 10
4.878219359695194
 20
0.32099603934771
 10
4.879098324496538
 20
0.3234357977123832
 10
4.879575469951802
 20
0.3248802464703946
 10
4.879721146550174
 20
0.3253585542465043
 10
4.88552741168332
 20
0.337670633080057
 10
4.890000145725792
 20
0.3488484302774175
 10
4.893189108234565
 20
0.358871354906368
 10
4.895154176532003
 20
0.3677286968658056
 10
4.895955109473348
 20
0.3753997467563668
 10
4.895631904251601
 20
0.3818840307094824
 10
4.894264081384207
 20
0.387140603795002
 10
4.891891638064173
 20
0.3911689921443617
 10
4.888574451613877
 20
0.393958485656448
 10
4.884372162421399
 20
0.3954783756336511
 10
4.879334648510869
 20
0.39571807044201
 10
4.873511787906387
 20
0.3946669784475567
 10
4.866973457228588
 20
0.3923142710820393
 10
4.859769297567304
 20
0.3886293581149935
 10
4.851949186946647
 20
0.3836016479124531
 10
4.843583001987255
 20
0.3772203119061643
 10
4.832306028798171
 20
0.3674132187745176
 10
4.821056376817857
 20
0.3565357268613187
 10
4.809916409775169
 20
0.3447868743944671
 10
4.798968135997547
 20
0.3323357017071142
 10
4.788293919213863
 20
0.3193812470271631
 10
4.777965768453299
 20
0.3060926691549017
 10
4.768075928275841
 20
0.2926588885528396
 10
4.758706407008929
 20
0.2792489455541247
 10
4.749929569083164
 20
0.2660619968538018
 10
4.741827422826005
 20
0.2532670827850207
 10
4.734492212797412
 20
0.2410531238102873
 10
4.727996066493723
 20
0.2295992780281466
 10
4.72242122917666
 20
0.2190945843682481
 10
4.717859708471927
 20
0.2097079646965945
 10
4.714373751044732
 20
0.201628694877126
 10
4.712055601455048
 20
0.195045695372352
 10
4.710204316386942
 20
0.1865070278184184
 10
4.709760041102683
 20
0.1785517327596651
 10
4.710643965887697
 20
0.1712807509157592
 10
4.712737402301513
 20
0.1648054961731784
 10
4.715961777563819
 20
0.1592469078480896
 10
4.720218283363536
 20
0.1547061635944438
 10
4.725418110687797
 20
0.1512843225990412
 10
4.7314528073287
 20
0.1491126788777297
 10
4.738243563571643
 20
0.1482921731501712
 10
4.745681571807274
 20
0.1489241015374532
 10
4.753678259957041
 20
0.1511295218228863
 10
4.762134819709842
 20
0.1550096116604163
 10
4.770972678285367
 20
0.16068531036621
 10
4.780073028776023
 20
0.1682580325285006
 10
4.789357179934356
 20
0.1778387181651979
 10
4.798736559681806
 20
0.1895484250596144
 10
4.811131481677733
 20
0.206772794676958
 10
4.822231329703143
 20
0.2227324179122601
 10
4.832096454948974
 20
0.2374565818574208
 10
4.84080708873553
 20
0.250964337371812
 10
4.848413346021217
 20
0.2632650914179671
 10
4.855005575891723
 20
0.2743877756863604
 10
4.860634011772596
 20
0.2843517964377877
 10
4.865379003451295
 20
0.2931862038298636
 10
4.869300546717312
 20
0.3008902870597296
 10
4.872479228292391
 20
0.3075130948815108
 10
4.874985043264295
 20
0.3130537980252086
 10
4.876868343525714
 20
0.3175418020498686
  0
LWPOLYLINE
  5
28E
102
{ACAD_REACTORS
330
2D8
102
}
330
282
100
AcDbEntity
  8
DIM
 62
     7
100
AcDbPolyline
 90
      497
 70
     0
 43
0.0
 10
4.94288481689481
 20
0.4451586792405707
 10
4.944641302541214
 20
0.4482280860519872
 10
4.94961426413829
 20
0.4568897806294974
 10
4.957364372956924
 20
0.4703589124983055
 10
4.967461944164838
 20
0.487820514821717
 10
4.979457531267549
 20
0.5084798562938282
 10
4.992901687770554
 20
0.5315422056087354
 10
5.007374846606971
 20
0.5562024767608503
 10
5.022417443516907
 20
0.5816560576131611
 10
5.037600149069518
 20
0.6071179792237303
 10
5.052483279134278
 20
0.6317733932230017
 10
5.06661738721668
 20
0.6548275683050786
 10
5.079572906951597
 20
0.6754755369315096
 10
5.090910391142784
 20
0.6929224493292523
 10
5.100180274828609
 20
0.706363574894148
 10
5.106943229279963
 20
0.7150140631514042
 10
5.110769451197427
 20
0.7180489479660715
 10
5.113489971124877
 20
0.7180767206928245
 10
5.117161135189142
 20
0.718153234830556
 10
5.121582009688033
 20
0.7182008653360939
 10
5.126591658112374
 20
0.7181415132977041
 10
5.132029262420147
 20
0.7179070791019005
 10
5.137713887505654
 20
0.7174197007712256
 10
5.14347471602862
 20
0.716611397159344
 10
5.149150693012721
 20
0.7153940700562629
 10
5.154551002521181
 20
0.7136999752499236
 10
5.159524588875925
 20
0.7114408960631949
 10
5.163880754607305
 20
0.7085590875822714
 10
5.16746856250441
 20
0.7049763324282719
 10
5.170106958994402
 20
0.7006047693254925
 10
5.171625245204147
 20
0.6953864164258424
 10
5.171852248391935
 20
0.6892232946882207
 10
5.170617388151768
 20
0.68206742156279
 10
5.167199696863477
 20
0.6729972734792167
 10
5.161170674366225
 20
0.6612978765833244
 10
5.152802197187092
 20
0.6471260210343033
 10
5.142375904217132
 20
0.6306183799276948
 10
5.130183907514236
 20
0.6119515050848996
 10
5.116487965840079
 20
0.5912723058340071
 10
5.101579954318275
 20
0.5687373353999075
 10
5.085741867241296
 20
0.5445132647729061
 10
5.069245344201945
 20
0.5187368855156827
 10
5.052372379492709
 20
0.4915748686185353
 10
5.035404848938931
 20
0.4631838857735105
 10
5.018614629067698
 20
0.433720727139793
 10
5.002293476535456
 20
0.4033319466440357
 10
4.98671338633644
 20
0.372184333743677
 10
4.972156234295994
 20
0.3404345601307614
 10
4.95890377777232
 20
0.308229298199084
 10
4.957811866029111
 20
0.3055420451880995
 10
4.954842625439894
 20
0.2980266935447382
 10
4.950486210495036
 20
0.286537496495848
 10
4.945192304623304
 20
0.2718891839438431
 10
4.939441063016815
 20
0.2549361275827096
 10
4.933712403933384
 20
0.2365127005099339
 10
4.928456129268937
 20
0.2174436319261801
 10
4.924162275046697
 20
0.1985731757600426
 10
4.921280761629724
 20
0.1807360605104353
 10
4.920311505872348
 20
0.1647664223405574
 10
4.921694547306515
 20
0.1515091075147215
 10
4.92591968502117
 20
0.1417883713650134
 10
4.933456956443023
 20
0.1364487047543204
 10
4.944766281233384
 20
0.1363247177144089
 10
4.960327459182941
 20
0.1422407840445157
 10
4.980610646185546
 20
0.1550513939057723
 10
4.98255432334561
 20
0.1570385071631026
 10
4.984701729360992
 20
0.1601832881419796
 10
4.987020852395517
 20
0.1643161041735404
 10
4.989439683419995
 20
0.1692677964574987
 10
4.991935972962217
 20
0.1748486152613484
 10
4.994457592122351
 20
0.1808791655522608
 10
4.99696252976598
 20
0.1871899331285203
 10
4.999388539227865
 20
0.1935916421261901
 10
5.001703608671839
 20
0.1999146598764074
 10
5.003855490730934
 20
0.2059695920480955
 10
5.005812173568962
 20
0.2115868059723969
 10
5.007511410520713
 20
0.2165770257853712
 10
5.008911308918889
 20
0.2207807365835563
 10
5.00996950222764
 20
0.2239984262704784
 10
5.010633980014276
 20
0.2260606991115601
 10
5.010872611975479
 20
0.2267879231396925
 10
5.014705061236085
 20
0.2354131264801875
 10
5.020126236597945
 20
0.2456096189014048
 10
5.026983660777275
 20
0.2571691921471899
 10
5.035134618854279
 20
0.2698635208977382
 10
5.044426396610887
 20
0.283464398300385
 10
5.054726396892689
 20
0.2977533798664353
 10
5.065881905481617
 20
0.3125022587432262
 10
5.077750207457881
 20
0.3274827096109512
 10
5.090188824835941
 20
0.3424864057463104
 10
5.103034925632343
 20
0.3572752594655331
 10
5.11616591199094
 20
0.3716307078127787
 10
5.129429188160798
 20
0.3853345432336361
 10
5.142672039923873
 20
0.3981585588754459
 10
5.155751633893203
 20
0.4098644301201464
 10
5.168525610550403
 20
0.4202538295426948
 10
5.180851136508536
 20
0.429088432525024
 10
5.18136548400367
 20
0.4294523647360898
 10
5.182867936960349
 20
0.4304946387465876
 10
5.185267553957167
 20
0.4321363263747866
 10
5.188473393572714
 20
0.4342984994389543
 10
5.192394514385568
 20
0.4369022297573526
 10
5.196949974272591
 20
0.4398684706811054
 10
5.202048831812362
 20
0.4431182940284746
 10
5.207600145583477
 20
0.4465727716177295
 10
5.213523091929914
 20
0.4501628560982418
 10
5.219716611664878
 20
0.4537997384571657
 10
5.226099762665199
 20
0.4574043720456267
 10
5.232591721274872
 20
0.4609077095130001
 10
5.239091428307091
 20
0.4642209418464383
 10
5.245528059404087
 20
0.4672749032281747
 10
5.251790674547962
 20
0.4699909024107587
 10
5.257808212446647
 20
0.4722797749799188
 10
5.261512643427373
 20
0.4734759735876111
 10
5.266379243881061
 20
0.474848416673563
 10
5.272206606236949
 20
0.4762794820016012
 10
5.278773442794935
 20
0.4776617835680828
 10
5.285878227517116
 20
0.4788676998385864
 10
5.293299791170525
 20
0.4797998441077187
 10
5.300826489951859
 20
0.4803207140099435
 10
5.308257034757517
 20
0.4803226866073409
 10
5.31536013858912
 20
0.479698494363408
 10
5.321934275408786
 20
0.4783205157437181
 10
5.3277680383475
 20
0.4760712469792399
 10
5.332650139003405
 20
0.4728431835991885
 10
5.336359171209238
 20
0.4685189403016761
 10
5.33869372739425
 20
0.4629808948505226
 10
5.339432401391178
 20
0.4561116619438384
 10
5.338373785629265
 20
0.4477936193454486
 10
5.336624389017963
 20
0.4394137558921241
 10
5.335440473006187
 20
0.4323372848170007
 10
5.334750857834762
 20
0.4264650424075498
 10
5.334524360937507
 20
0.4216973910826809
 10
5.334699801853474
 20
0.4179350486627236
 10
5.335245879549347
 20
0.4150683782683338
 10
5.336091414265936
 20
0.4129982161869865
 10
5.337205341904194
 20
0.4116349241358393
 10
5.338536362834304
 20
0.4108691021698317
 10
5.340023415062461
 20
0.4106114674075468
 10
5.341635079088199
 20
0.4107423836713871
 10
5.34331029291772
 20
0.4111725680799392
 10
5.345007874686608
 20
0.4118025015192508
 10
5.346676643232157
 20
0.4125327833425097
 10
5.348265417391687
 20
0.4132640129029089
 10
5.349732778366487
 20
0.4138766724899928
 10
5.353459103417996
 20
0.4152326229354327
 10
5.356912130336709
 20
0.4163117916426593
 10
5.36010197688801
 20
0.4171240594427808
 10
5.363058996368096
 20
0.417699068829128
 10
5.365762953246175
 20
0.4180170581394798
 10
5.368234083053032
 20
0.4180977890360574
 10
5.370482503554065
 20
0.4179511423499687
 10
5.372518332514665
 20
0.4175869989123254
 10
5.374341569934841
 20
0.4170053587231273
 10
5.37597233287822
 20
0.4162159841463389
 10
5.377400858980855
 20
0.4152389922456088
 10
5.378657027670357
 20
0.4140640283212598
 10
5.379730958115608
 20
0.4127012101386836
 10
5.3806428858474
 20
0.4111702993600979
 10
5.381392929332882
 20
0.4094812952837597
 10
5.381990969403155
 20
0.4076240801442701
 10
5.382224084824066
 20
0.4028209814360899
 10
5.381031828054041
 20
0.3958846190036382
 10
5.378587267309065
 20
0.3870729606600491
 10
5.375083232467346
 20
0.3766237386876714
 10
5.370682792446629
 20
0.3647950393667791
 10
5.365558778528622
 20
0.3518248319140031
 10
5.359894258227569
 20
0.3379709656753338
 10
5.353862181292313
 20
0.3234814091656535
 10
5.347645496769963
 20
0.3086040124327063
 10
5.341407036643964
 20
0.2935768631602595
 10
5.335329986895715
 20
0.2786678099925588
 10
5.329597059638032
 20
0.2641047043808395
 10
5.324371323788646
 20
0.2501456326053812
 10
5.319845727692921
 20
0.2370383262467754
 10
5.316173222503188
 20
0.2250309907541936
 10
5.31354687503196
 20
0.2143813570064843
 10
5.310785516362308
 20
0.199933056127227
 10
5.309006551023657
 20
0.188213308590532
 10
5.308086907291283
 20
0.1789635542475505
 10
5.307913749672977
 20
0.1719451130787988
 10
5.308394122805921
 20
0.1669090688322541
 10
5.30941495426363
 20
0.1635967428919294
 10
5.310853527722798
 20
0.1617795730037326
 10
5.312606770055204
 20
0.1611987620845312
 10
5.3145718450669
 20
0.161615511647696
 10
5.316625681033158
 20
0.1627712615443873
 10
5.318665441760039
 20
0.1644272132879703
 10
5.320588172586461
 20
0.1663345690935678
 10
5.322271038721964
 20
0.1682547674088362
 10
5.323600967740084
 20
0.1699291296177883
 10
5.324485004277981
 20
0.1711087394683997
 10
5.324810431310609
 20
0.1715649162394417
 10
5.325586419100289
 20
0.1720657584803309
 10
5.327895094675696
 20
0.1736285179267956
 10
5.331697882449525
 20
0.1763736600264352
 10
5.336975968496702
 20
0.1804014146960533
 10
5.343690658762781
 20
0.1858222480849942
 10
5.351823139322675
 20
0.1927363901100669
 10
5.361314717525452
 20
0.2012545438548994
 10
5.372156815678565
 20
0.2114968193656601
 10
5.384320502091533
 20
0.2235535657280447
 10
5.397757083411676
 20
0.2375353675585412
 10
5.412447982648188
 20
0.2535624533704617
 10
5.428354268812341
 20
0.2717252907166436
 10
5.44544724714796
 20
0.292134227279293
 10
5.463698341365983
 20
0.3149096100388586
 10
5.483078738243094
 20
0.3401517873792894
 10
5.503549625257697
 20
0.3679612261516816
 10
5.504362008167831
 20
0.3690016750967615
 10
5.506677269844935
 20
0.371964454765676
 10
5.510292107243969
 20
0.3765719541502133
 10
5.515023334383556
 20
0.3825563246061296
 10
5.520667885152946
 20
0.3896599537217185
 10
5.527052572868996
 20
0.3976148743855923
 10
5.533964213655565
 20
0.4061535933549365
 10
5.541219621531269
 20
0.4150082619855056
 10
5.548625729683607
 20
0.423921149398451
 10
5.55599923366406
 20
0.4326144076512737
 10
5.563127068063614
 20
0.4408305427994126
 10
5.569826046900892
 20
0.4483017061986239
 10
5.575902984896252
 20
0.4547601676718003
 10
5.581174814535458
 20
0.4599480778729568
 10
5.585438232773455
 20
0.46358782579388
 10
5.588500172797765
 20
0.4654216805557212
 10
5.591883086161573
 20
0.466491679234693
 10
5.59588571908273
 20
0.4675343343543244
 10
5.600377488348236
 20
0.468501189496207
 10
5.605247690874485
 20
0.4693335520094007
 10
5.610385742044968
 20
0.4699827285412042
 10
5.615671057944965
 20
0.4704001442060726
 10
5.620992935490832
 20
0.470527106353055
 10
5.626240790066091
 20
0.4703149216294609
 10
5.631293919288864
 20
0.4697050158514884
 10
5.636031739244401
 20
0.4686488141335837
 10
5.640353546147331
 20
0.4670875053576627
 10
5.644128875251809
 20
0.4649826324035616
 10
5.647256904305308
 20
0.4622653848549483
 10
5.649607168561985
 20
0.4588973055916626
 10
5.651078964236468
 20
0.4548195834956151
 10
5.651561588245115
 20
0.4499735259158637
 10
5.65137034985517
 20
0.4448054287923373
 10
5.650950786145415
 20
0.4397800465886164
 10
5.650373484539329
 20
0.4349465465259695
 10
5.649668916800251
 20
0.4303445703959739
 10
5.648907670351647
 20
0.4260232854198947
 10
5.64812021695684
 20
0.4220223333893145
 10
5.647387024870425
 20
0.4183807637600996
 10
5.646728566557484
 20
0.4151383367909727
 10
5.646225310272583
 20
0.4123341019378071
 10
5.645917964011609
 20
0.4100275811215415
 10
5.645846998836127
 20
0.4082582976666167
 10
5.646082646768192
 20
0.4070454208995429
 10
5.646675733569054
 20
0.406458353572365
 10
5.647666611833159
 20
0.4065266197112756
 10
5.649115869685736
 20
0.4072995050046782
 10
5.651073859019462
 20
0.4088064150116182
 10
5.654678200901102
 20
0.4116839173313842
 10
5.658499565665721
 20
0.4143088309177117
 10
5.662458314328745
 20
0.4167121014024957
 10
5.666514449697153
 20
0.4188942026543075
 10
5.670587977384926
 20
0.4208560824102872
 10
5.674639137133354
 20
0.4226182131355057
 10
5.678587816089255
 20
0.4241715432688534
 10
5.682374255397419
 20
0.4255367822096919
 10
5.685948458566585
 20
0.4267145222937306
 10
5.689250429807231
 20
0.4277054743238243
 10
5.692210410965884
 20
0.4285304661664746
 10
5.694768406253018
 20
0.4291902086245401
 10
5.696874537644532
 20
0.4296952933319816
 10
5.698458691585507
 20
0.4300365502605441
 10
5.699461227687862
 20
0.4302446881078428
 10
5.699832149460334
 20
0.4303202992095887
 10
5.715699233071703
 20
0.432512480239895
 10
5.729733224139508
 20
0.4327662413655631
 10
5.742037195791958
 20
0.4313403796697291
 10
5.752733982819506
 20
0.4284734567047331
 10
5.761936420714349
 20
0.4244041524900571
 10
5.769737701773607
 20
0.4194013818742342
 10
5.776270660085963
 20
0.4137035879424591
 10
5.781648131143626
 20
0.4075494507142175
 10
5.785963070309421
 20
0.4011878864415337
 10
5.789348548606326
 20
0.3948773368061094
 10
5.791897521397189
 20
0.388866718059969
 10
5.793732705005297
 20
0.383384592457201
 10
5.794967171857145
 20
0.3786896386137961
 10
5.795713875912056
 20
0.3750305358474932
 10
5.796075771831119
 20
0.3726560819431661
 10
5.796165813573672
 20
0.3718149562185591
 10
5.776001157408167
 20
0.3782942958243343
 10
5.756845911796403
 20
0.3813414363779
 10
5.738744812617106
 20
0.3813558759407733
 10
5.721732833384997
 20
0.3787572296381203
 10
5.705854946913078
 20
0.3739649941279612
 10
5.691156244481483
 20
0.36740866536657
 10
5.677671462670673
 20
0.3594878598826074
 10
5.665435574995377
 20
0.3506221928012376
 10
5.654483673437496
 20
0.3412412785458745
 10
5.644870730108266
 20
0.3317644953074001
 10
5.636631481588146
 20
0.3225914596144737
 10
5.629801019859016
 20
0.3141517858905125
 10
5.624414199968484
 20
0.3068550899624274
 10
5.620516113196678
 20
0.3011308677864921
 10
5.618151613889452
 20
0.2973886167224791
 10
5.61735567556154
 20
0.2960479518955488
 10
5.616755528790406
 20
0.2951950018072669
 10
5.614974850139226
 20
0.2926159160116359
 10
5.61209339705973
 20
0.2882897481750088
 10
5.608141167446675
 20
0.28221614289596
 10
5.603197800284654
 20
0.2743641545425923
 10
5.59729329346841
 20
0.2647334277134785
 10
5.590507285982553
 20
0.2532930167767216
 10
5.582879656552947
 20
0.2400324485655005
 10
5.574480281800191
 20
0.2249408945115618
 10
5.565348921983037
 20
0.2079978821498347
 10
5.555555453722092
 20
0.1891925829120708
 10
5.545149636574336
 20
0.1685044058660488
 10
5.534181230096749
 20
0.1459127600795558
 10
5.522720110909951
 20
0.1214068169843401
 10
5.510806157739807
 20
0.0949761034135808
 10
5.498509010272648
 20
0.0665897922025227
 10
5.497021628350772
 20
0.0642872512108213
 10
5.494625258025081
 20
0.062075485115102
 10
5.49145012710715
 20
0.0599729524390202
 10
5.487626818809964
 20
0.0580281096009827
 10
5.483265680815726
 20
0.0562696513571819
 10
5.478507295635672
 20
0.054745915658879
 10
5.473472010250269
 20
0.0534854787951247
 10
5.468300288703609
 20
0.0525266794189303
 10
5.463092597846781
 20
0.0519083300518801
 10
5.457999282555
 20
0.051658651581592
 10
5.453130808977611
 20
0.0518163380625083
 10
5.448617760327607
 20
0.052429845913041
 10
5.444600363714791
 20
0.053517515189693
 10
5.44117908599027
 20
0.0551181584140537
 10
5.438504508963532
 20
0.0572799950702443
 10
5.436686980316778
 20
0.0600317199144502
 10
5.436065076935456
 20
0.0649394318237118
 10
5.43675360019489
 20
0.0732518584081223
 10
5.438586401031642
 20
0.0844509316328477
 10
5.441387331084015
 20
0.0980187019302008
 10
5.444980360457449
 20
0.1134472190307409
 10
5.449179459959147
 20
0.1302286511321693
 10
5.453808481227397
 20
0.147845048666797
 10
5.458711274497026
 20
0.1657782251326463
 10
5.463681930445851
 20
0.1835305849599589
 10
5.468574180139796
 20
0.200573823881367
 10
5.473192113554937
 20
0.2164102278599618
 10
5.477369463160698
 20
0.2305117295626609
 10
5.480920199764263
 20
0.2423704971871707
 10
5.483678292769333
 20
0.251478461996907
 10
5.485457594515956
 20
0.2573177928913211
 10
5.486092074407835
 20
0.2593804211338302
 10
5.481492355867807
 20
0.2518343831434358
 10
5.474691940091716
 20
0.2425542944977206
 10
5.46601435863792
 20
0.23183634319569
 10
5.455813140959513
 20
0.2199763618349237
 10
5.44440193778373
 20
0.2072806561798206
 10
5.432134278563673
 20
0.1940450588279603
 10
5.419343694155941
 20
0.1805656393112045
 10
5.406343835287771
 20
0.1671487033939538
 10
5.393498230710505
 20
0.1540899652066461
 10
5.381130530449652
 20
0.1416956120465347
 10
5.369574146894642
 20
0.1302517141472368
 10
5.359162847836373
 20
0.1200743396371156
 10
5.350230045664297
 20
0.1114495587497828
 10
5.343119389000399
 20
0.1046833218482099
 10
5.338164527168423
 20
0.1000816977625138
 10
5.335698872557827
 20
0.0979307567263064
 10
5.316770732964677
 20
0.0846940641053316
 10
5.300509607494596
 20
0.0745659942770658
 10
5.28672207393366
 20
0.0672588184679004
 10
5.275195066872868
 20
0.0625150427332795
 10
5.265745400330828
 20
0.0600668184289504
 10
5.25814989113315
 20
0.0596467707792439
 10
5.252225234831307
 20
0.0609770518416628
 10
5.247748366718042
 20
0.0638002861387825
 10
5.24453610081197
 20
0.0678486250263646
 10
5.24237525323695
 20
0.0728545752615855
 10
5.241072520246191
 20
0.078540407369097
 10
5.240414717963567
 20
0.0846386281060792
 10
5.240208898043704
 20
0.0909015058919369
 10
5.24024152120905
 20
0.0970315495890972
 10
5.240329638412489
 20
0.1027809091498177
 10
5.240250066479632
 20
0.1078822097984275
 10
5.23996778383745
 20
0.1127558959300856
 10
5.239568945163377
 20
0.1179209833167665
 10
5.239072601316777
 20
0.1232972406381716
 10
5.238507802455259
 20
0.1288043181068499
 10
5.237873600841695
 20
0.1343622213367883
 10
5.237198809699407
 20
0.1398706019440343
 10
5.236502479887761
 20
0.1452492286082858
 10
5.235793662967871
 20
0.1504179884763861
 10
5.235111526862745
 20
0.1553064125919974
 10
5.23445476843382
 20
0.1598045086743465
 10
5.233842557007605
 20
0.1638420447013793
 10
5.233313942039956
 20
0.1673385524185154
 10
5.232857858028353
 20
0.1702041566086212
 10
5.232513235961519
 20
0.1723483897188629
 10
5.232299245165954
 20
0.1737010197271847
 10
5.232224818735637
 20
0.1741719344821764
 10
5.232118546994563
 20
0.1736431563462375
 10
5.231770326212298
 20
0.1721071738311028
 10
5.231080755742027
 20
0.1696151680994617
 10
5.229960434235202
 20
0.1662182018468545
 10
5.228310434913574
 20
0.1620074534289806
 10
5.226051118792561
 20
0.1570138684777333
 10
5.22309343992503
 20
0.1513185075834134
 10
5.219347996962426
 20
0.1449724334415627
 10
5.214725507023331
 20
0.1380367080459788
 10
5.209126687928076
 20
0.1305725118575971
 10
5.202482255391757
 20
0.122640669935933
 10
5.194682927936447
 20
0.114302481209064
 10
5.185649421978993
 20
0.105618889203642
 10
5.175282573806867
 20
0.0966610736788578
 10
5.163512862200867
 20
0.0874698610977198
 10
5.150231242617365
 20
0.0781265489848107
 10
5.128322719809354
 20
0.0648751630810391
 10
5.108672613443495
 20
0.0556973082221699
 10
5.0911456016211
 20
0.0501445560597116
 10
5.075636597272527
 20
0.047788121440238
 10
5.06204027639383
 20
0.0481792206138341
 10
5.050221198619183
 20
0.0508594259337461
 10
5.040074158411798
 20
0.0553899529483051
 10
5.031493950234875
 20
0.0613320172058423
 10
5.024345370656874
 20
0.0682471896561072
 10
5.018532976504957
 20
0.0756765687837895
 10
5.01392156434759
 20
0.0831817255386405
 10
5.010415927946226
 20
0.0903237570018494
 10
5.00788062693504
 20
0.0966442355266626
 10
5.006220573542627
 20
0.1017142574925263
 10
5.005300445870297
 20
0.1050853945509402
 10
5.005024919212367
 20
0.1063087444848403
 10
4.977899542233522
 20
0.0840685303726545
 10
4.953679785631251
 20
0.0681943409405417
 10
4.932237957462255
 20
0.0580376434078165
 10
4.913406131655953
 20
0.0529303802658685
 10
4.897036854606838
 20
0.0522442542648012
 10
4.882992079671943
 20
0.0553008531963162
 10
4.871094355351004
 20
0.0614722352119532
 10
4.861225870531839
 20
0.0700997497656282
 10
4.85319893748165
 20
0.0805355748795229
 10
4.846895863555396
 20
0.0921310593058085
 10
4.842148722682502
 20
0.1042181455358673
 10
4.838800061959204
 20
0.1161686547869483
 10
4.836711953209672
 20
0.1273141741490136
 10
4.835736824361262
 20
0.1370164070739115
 10
4.835706867810536
 20
0.1446172953512832
 10
4.836484392315945
 20
0.1494684246675852
 10
4.834072669320015
 20
0.1451166902787584
 10
4.829081745418442
 20
0.1383153390447234
 10
4.82176811876036
 20
0.1296113706907942
 10
4.812418048455391
 20
0.11953143094434
 10
4.801287914185529
 20
0.1086125202324215
 10
4.788654331163563
 20
0.0974114006443117
 10
4.774783322968325
 20
0.0864349562451672
 10
4.759941623981482
 20
0.0762500668896582
 10
4.744405375547259
 20
0.0673734974740494
 10
4.728440956645904
 20
0.0603421299582578
 10
4.712314864724817
 20
0.0557028456004414
 10
4.696303478062503
 20
0.0539924078933787
 10
4.680663057873807
 20
0.0557378179658681
 10
4.665680100202642
 20
0.0614857201417927
 10
4.65162098402925
 20
0.0717729963810641
 10
4.638741970568489
 20
0.0871266478124842
 10
4.631621512404407
 20
0.099791890626328
 10
4.626484895118828
 20
0.1136137126068561
 10
4.623301054612696
 20
0.1285024754712296
 10
4.622009047359377
 20
0.144378895636283
 10
4.622577809259816
 20
0.1611533348191791
 10
4.624946278320223
 20
0.1787365101384957
 10
4.629083508908699
 20
0.1970487826096505
 10
4.634928320564313
 20
0.2159908700529698
 10
4.642429769058658
 20
0.2354833704181534
 10
4.651566789590951
 20
0.2554365269552168
 10
4.662268320869145
 20
0.2757611752498832
 10
4.674503417261334
 20
0.2963776763175652
 10
4.688211016773728
 20
0.3171967472768511
 10
4.7033600553073
 20
0.3381287498448948
 10
4.719899470166481
 20
0.3590842826731393
 10
4.737778198655753
 20
0.3799739444130274
 10
4.739498929575702
 20
0.3817136814911865
 10
4.744436399088307
 20
0.3865355270727146
 10
4.752213762063973
 20
0.3938639051432577
 10
4.762474053502458
 20
0.403113003455923
 10
4.77485019063814
 20
0.4136871289327076
 10
4.788965328341419
 20
0.4250107055592576
 10
4.804472619377463
 20
0.4365078019197935
 10
4.820994981682389
 20
0.4475828434034544
 10
4.838165450957703
 20
0.457650136230491
 10
4.855617181372075
 20
0.4661339859194112
 10
4.872993207925262
 20
0.4724485802233165
 10
4.889926566318784
 20
0.4760082253624632
 10
4.90605029225415
 20
0.4762272275571
 10
4.920997421432872
 20
0.4725198930274744
 10
4.934401108023614
 20
0.4643105272920974
 10
4.94589426926074
 20
0.451003437272961
  0
LWPOLYLINE
  5
28F
102
{ACAD_REACTORS
330
2D8
102
}
330
282
100
AcDbEntity
  8
DIM
 62
     7
100
AcDbPolyline
 90
       96
 70
     1
 43
0.0
 10
5.212382965299852
 20
0.3226974179933677
 10
5.217577262655318
 20
0.3306264390541891
 10
5.222507668840528
 20
0.3382285634183955
 10
5.226991590209806
 20
0.3452859389329994
 10
5.230876549479368
 20
0.3515903573418466
 10
5.234019831729426
 20
0.3569134933251306
 10
5.236248842612532
 20
0.3610373762627219
 10
5.237410867910647
 20
0.3637337993019631
 10
5.237973338773343
 20
0.3656272687441842
 10
5.238504508602709
 20
0.3674111013070576
 10
5.238944263142101
 20
0.3690760084951865
 10
5.239262012161034
 20
0.3705723492187385
 10
5.239407522233982
 20
0.3718807172169232
 10
5.239350558531896
 20
0.3729814692946611
 10
5.239050531526046
 20
0.37382508282926
 10
5.238457207790894
 20
0.3743921515599347
 10
5.237530353199147
 20
0.3746631507587423
 10
5.236229378222077
 20
0.3745885578029977
 10
5.23452404803065
 20
0.3741487294976213
 10
5.232354011433926
 20
0.3733143787507132
 10
5.22968891513571
 20
0.3720558630689421
 10
5.226488525008726
 20
0.370353657724376
 10
5.222712251524235
 20
0.3681582400943224
 10
5.218319860554956
 20
0.3654500854508473
 10
5.210840318410589
 20
0.3604683438567218
 10
5.203011915089959
 20
0.3547406827765283
 10
5.194895238718295
 20
0.3483163878986701
 10
5.186540759655429
 20
0.3412348640804463
 10
5.178009066026575
 20
0.3335453970102602
 10
5.16935062819158
 20
0.3252873915454106
 10
5.160625915808516
 20
0.3165001340760494
 10
5.151905634768013
 20
0.3072427911216931
 10
5.143230256131637
 20
0.2975548860067807
 10
5.134660368024626
 20
0.2874857044197174
 10
5.12625632163791
 20
0.2770645334524051
 10
5.118068824265606
 20
0.2663507765586459
 10
5.110168226396915
 20
0.2553736023631963
 10
5.102605235325953
 20
0.2441924143198602
 10
5.095430439879677
 20
0.2328566165841828
 10
5.088714190547307
 20
0.2213953777809205
 10
5.084909629123458
 20
0.2142799500093666
 10
5.081167007021697
 20
0.2064837406866626
 10
5.077618921396421
 20
0.1982251943015125
 10
5.074417731064272
 20
0.1897025198118154
 10
5.071715913309013
 20
0.1811239254737327
 10
5.069666300815853
 20
0.1727276174381807
 10
5.068401135337779
 20
0.1647020422990959
 10
5.068083011923967
 20
0.157265289143746
 10
5.068854645494212
 20
0.1506456832919394
 10
5.070868276398009
 20
0.1450314344033288
 10
5.074266619555167
 20
0.1406508677977207
 10
5.079192152951215
 20
0.1377123101984132
 10
5.085807353168171
 20
0.136423851394424
 10
5.094244817360454
 20
0.1370039358744481
 10
5.104667022110085
 20
0.1396606534275033
 10
5.117206564571489
 20
0.1446124485422811
 10
5.112975180520237
 20
0.1428324516291219
 10
5.112648402290766
 20
0.1431063420976333
 10
5.115664136772373
 20
0.1452607667392574
 10
5.121459816985812
 20
0.1490823751524211
 10
5.129493348416893
 20
0.1543975771942829
 10
5.139192283255255
 20
0.1610031402286705
 10
5.150014526986709
 20
0.1687254741127386
 10
5.161377750969776
 20
0.1773714639757067
 10
5.172739505288859
 20
0.1867375217799729
 10
5.183537696833255
 20
0.1966502943169814
 10
5.193219994856256
 20
0.2069163113145223
 10
5.201223950845744
 20
0.217332221669281
 10
5.206987471691022
 20
0.2277246721727
 10
5.209948227347133
 20
0.2379003110197129
 10
5.209563767898458
 20
0.247655550172718
 10
5.205262000936059
 20
0.2568171548902978
 10
5.204255696235719
 20
0.2579791578378341
 10
5.20289048300259
 20
0.2592354192867692
 10
5.201235882455861
 20
0.2605451127740981
 10
5.199331773321389
 20
0.2618977651329981
 10
5.197257913050918
 20
0.2632724300298239
 10
5.195053943436029
 20
0.2646386357012513
 10
5.192779741799093
 20
0.2659856720461722
 10
5.19050494782644
 20
0.2672827118998313
 10
5.1882893203733
 20
0.2685090458628707
 10
5.186172619698403
 20
0.2696442014702125
 10
5.18422448548808
 20
0.2706573515571105
 10
5.1824949142336
 20
0.2715479037878445
 10
5.181053427154147
 20
0.2722750316994098
 10
5.179949783806705
 20
0.2728181443595936
 10
5.179243861513647
 20
0.273166531667286
 10
5.179005181494162
 20
0.2732793671594784
 10
5.179625919197512
 20
0.2741820768047347
 10
5.18138648078505
 20
0.2767514002363995
 10
5.18412403427331
 20
0.2807492497706985
 10
5.187696220143919
 20
0.2859772979825834
 10
5.191930207115177
 20
0.2921975756554254
 10
5.196673517903299
 20
0.2992018745330647
 10
5.201763557459116
 20
0.3067721055282337
 10
5.207057492395676
 20
0.3146699440228744
  0
LWPOLYLINE
  5
290
102
{ACAD_REACTORS
330
2D9
102
}
330
282
100
AcDbEntity
  8
DIM
 62
     7
100
AcDbPolyline
 90
       64
 70
     1
 43
0.0
 10
5.917925159572675
 20
0.2511740420894988
 10
5.922595343711918
 20
0.2629795442010412
 10
5.926709287688737
 20
0.2742615991980539
 10
5.93030568555757
 20
0.2849097409311909
 10
5.933413113607471
 20
0.2948036224200052
 10
5.93606026659463
 20
0.3038328959822909
 10
5.938275602340944
 20
0.311867215339344
 10
5.940097933368001
 20
0.3188061136400684
 10
5.941555835964848
 20
0.3245292439040153
 10
5.942667887122276
 20
0.3289163776178725
 10
5.944017574445489
 20
0.3347908004941686
 10
5.945114032641264
 20
0.3412382635165461
 10
5.945864543281054
 20
0.3480298490294871
 10
5.946196149598542
 20
0.3549164038466781
 10
5.946006015399774
 20
0.3616591294814988
 10
5.94520118532192
 20
0.3680091096819247
 10
5.943698703300412
 20
0.3737173097287911
 10
5.941415731737798
 20
0.3785446942011834
 10
5.938259315271253
 20
0.3822423468470788
 10
5.93413661700508
 20
0.3845713507127151
 10
5.928964799341855
 20
0.3852926703771739
 10
5.922650669984456
 20
0.3841373909919259
 10
5.915101747438612
 20
0.3808965934979618
 10
5.906234720238323
 20
0.3752912452813604
 10
5.895956988422184
 20
0.3671024279848556
 10
5.884185477458473
 20
0.356071107591033
 10
5.878159009822944
 20
0.3496520509751484
 10
5.872011295528103
 20
0.3422843641638753
 10
5.865763280907593
 20
0.3340478046089448
 10
5.859465910189818
 20
0.3250217743606623
 10
5.853149773605252
 20
0.3152559145088603
 10
5.846846053720064
 20
0.3048498626346312
 10
5.840595340062982
 20
0.2938531413606711
 10
5.834428696733048
 20
0.2823553889698189
 10
5.82838683172612
 20
0.2704161273830152
 10
5.822500690674104
 20
0.2581149955848563
 10
5.816801100741734
 20
0.2455216332616761
 10
5.811339006157432
 20
0.2327154424637801
 10
5.806125117022297
 20
0.2197563005135379
 10
5.801220376862985
 20
0.2067234909941131
 10
5.79664561354599
 20
0.193686772058987
 10
5.792431654236075
 20
0.1807157833944952
 10
5.79238649254708
 20
0.1794362286196431
 10
5.792324675049272
 20
0.1759067132709049
 10
5.792392115275312
 20
0.1706255437209005
 10
5.792714609694208
 20
0.1640812639782716
 10
5.793447715735439
 20
0.1567420640537342
 10
5.794717466802296
 20
0.1491164865524439
 10
5.796669539493152
 20
0.1416828392505049
 10
5.799429730277012
 20
0.1349296661565678
 10
5.803133716454006
 20
0.1293353935138839
 10
5.807927411556768
 20
0.1253983276950681
 10
5.813946492885435
 20
0.1235968949433719
 10
5.82132675620727
 20
0.124419520800302
 10
5.830203997289515
 20
0.1283546308073618
 10
5.840724129664835
 20
0.1359005313371622
 10
5.853012712867965
 20
0.1475257678018522
 10
5.867205542666141
 20
0.1637187657429333
 10
5.876600726601822
 20
0.1759183197845626
 10
5.88522928165208
 20
0.1884069761472258
 10
5.893119902573097
 20
0.2010743871487239
 10
5.900301165653921
 20
0.2138002058085959
 10
5.906811646481848
 20
0.2264639666792529
 10
5.912670158981967
 20
0.2389654398438843
  0
LWPOLYLINE
  5
291
102
{ACAD_REACTORS
330
2D9
102
}
330
282
100
AcDbEntity
  8
DIM
 62
     7
100
AcDbPolyline
 90
      256
 70
     1
 43
0.0
 10
6.025273381810627
 20
0.4614170721341413
 10
6.023799671668413
 20
0.4594243909211127
 10
6.022085622966727
 20
0.4574045550247483
 10
6.020153129776346
 20
0.4555173162827995
 10
6.018013849935513
 20
0.4539025464036506
 10
6.015719793876911
 20
0.4527296411218753
 10
6.013272620140547
 20
0.4521385906130107
 10
6.010724102224806
 20
0.4522787920151217
 10
6.008086134902228
 20
0.4533101156331015
 10
6.005400610840098
 20
0.4553920763704156
 10
6.002679187876665
 20
0.4586645459354504
 10
5.999953640913822
 20
0.4632771584005653
 10
5.997255981787745
 20
0.4693995464346177
 10
5.996179800466784
 20
0.4705723779504041
 10
5.993826196779536
 20
0.4719703585237252
 10
5.990253744909807
 20
0.4734727857726995
 10
5.985571133999798
 20
0.4749683642779879
 10
5.979847055998718
 20
0.4763462724888168
 10
5.973169964517964
 20
0.4774754533236259
 10
5.965618669272146
 20
0.4782549660627549
 10
5.957271743041566
 20
0.4785638713900334
 10
5.948227875670177
 20
0.4782909923532675
 10
5.938555640640032
 20
0.4773155081034286
 10
5.928343728496841
 20
0.4755263601554667
 10
5.9176707120209
 20
0.4728026091932094
 10
5.906625281757925
 20
0.4690331967316031
 10
5.895286128955355
 20
0.4641071827527324
 10
5.883741707224615
 20
0.4578935101750386
 10
5.872060826982043
 20
0.4502913567459999
 10
5.87114330894397
 20
0.4496621821678275
 10
5.86849027394372
 20
0.4477334765688763
 10
5.864240645952527
 20
0.4444135877248812
 10
5.858513705746574
 20
0.4396410982406174
 10
5.851468494360744
 20
0.4333341182557931
 10
5.843224292571214
 20
0.4254312303751782
 10
5.833930142114631
 20
0.415850663205621
 10
5.82372508542938
 20
0.4045107638211114
 10
5.812738402589886
 20
0.3913499963592812
 10
5.80110913603454
 20
0.3762867078941188
 10
5.788966447370626
 20
0.359249363265004
 10
5.776469377633034
 20
0.3401560726116433
 10
5.763737207597934
 20
0.3189454185388119
 10
5.750909098170865
 20
0.2955457474187497
 10
5.73812397332307
 20
0.26986540702719
 10
5.725530993258331
 20
0.2418326252692342
 10
5.713437318718767
 20
0.2086735686461782
 10
5.706604267498143
 20
0.178912429369996
 10
5.704531519282426
 20
0.1525251329030546
 10
5.706698518226787
 20
0.1294678430455018
 10
5.712584590019268
 20
0.109686724299241
 10
5.721679415047567
 20
0.0931578205937722
 10
5.733482436063376
 20
0.0798370587949684
 10
5.747472978754707
 20
0.0696706034047221
 10
5.763140723509295
 20
0.0626344983525442
 10
5.779974995313402
 20
0.0586747896731872
 10
5.797455356789356
 20
0.0577576404650575
 10
5.815081369155976
 20
0.0598489768922654
 10
5.83233235810129
 20
0.0648949634567124
 10
5.848697885545874
 20
0.0728616447896542
 10
5.863657395644892
 20
0.0837051846912402
 10
5.876720448915428
 20
0.0973913908584443
 10
5.885101298092791
 20
0.1075428177072322
 10
5.892120846809852
 20
0.1150601866491439
 10
5.897872405830867
 20
0.1202224118309552
 10
5.902489283113112
 20
0.1233079335308798
 10
5.906084669550203
 20
0.1245854296631546
 10
5.90876187520466
 20
0.124333695907417
 10
5.91064385333405
 20
0.1228012931142626
 10
5.911834150935199
 20
0.1202870155598301
 10
5.912465839031071
 20
0.1170493049258265
 10
5.912632109918781
 20
0.1133570760607796
 10
5.912466271555608
 20
0.1094887692428959
 10
5.912071515536922
 20
0.1057131808535558
 10
5.911561151223473
 20
0.102308988105257
 10
5.911058250340005
 20
0.0995347511468481
 10
5.910676240714423
 20
0.097679146489071
 10
5.910518077007807
 20
0.0969909719168083
 10
5.910555279047684
 20
0.0959104553698609
 10
5.910709844038869
 20
0.092918414316749
 10
5.911076148949909
 20
0.0883837565885255
 10
5.911758806981886
 20
0.0826952701455977
 10
5.9128219602743
 20
0.0762022196239354
 10
5.914380339793623
 20
0.069303273815061
 10
5.91649808767935
 20
0.0623476973549497
 10
5.91928993489796
 20
0.0557341590351168
 10
5.922830141354353
 20
0.0498218043226402
 10
5.927213084017068
 20
0.0449795410485781
 10
5.932533376788931
 20
0.0415962756404742
 10
5.938865279574841
 20
0.0400311535654137
 10
5.946313405575864
 20
0.0406729627838054
 10
5.954972013293414
 20
0.0438806118284472
 10
5.964905718735558
 20
0.050043362528319
 10
5.976228779000194
 20
0.0595198864819295
 10
5.97684406721499
 20
0.0599626284075861
 10
5.97857922877575
 20
0.0612321615336082
 10
5.981343322261061
 20
0.0632495576782635
 10
5.985015289887613
 20
0.0659262447629896
 10
5.989474192339244
 20
0.0691836500074778
 10
5.994608971130901
 20
0.0729330828660295
 10
6.000308449310374
 20
0.0770758534946889
 10
6.006441925197542
 20
0.081553506176796
 10
6.012918220436695
 20
0.0862671141341096
 10
6.019606277946287
 20
0.0911282237552147
 10
6.02638515841015
 20
0.0960582622598025
 10
6.033163801939721
 20
0.1009683021678835
 10
6.039801270622341
 20
0.1057800076334416
 10
6.046196505271197
 20
0.1104045696436255
 10
6.052228566570136
 20
0.1147634154181318
 10
6.057786396034082
 20
0.1187678544112547
 10
6.058069101129419
 20
0.1189945211910661
 10
6.058866746055606
 20
0.1196351166731997
 10
6.060118742687407
 20
0.1206403551692539
 10
6.061734149603424
 20
0.1219313084974889
 10
6.063642497847318
 20
0.1234688087349003
 10
6.065772963061327
 20
0.1251836900637109
 10
6.068044840056572
 20
0.1270169044315565
 10
6.070397422240688
 20
0.1289091668517752
 10
6.072750004424804
 20
0.1308014292719939
 10
6.075031880718306
 20
0.1326345251726959
 10
6.077162345932308
 20
0.1343494065015101
 10
6.07907057570906
 20
0.1358769074406663
 10
6.080686101092219
 20
0.1371778600671547
 10
6.08192809842577
 20
0.1381832170303507
 10
6.082735742650214
 20
0.1388236940453442
 10
6.083018447745551
 20
0.1390503608251539
 10
6.08359290949734
 20
0.1394235815316129
 10
6.085165357541782
 20
0.1404650262721159
 10
6.087494387115121
 20
0.1420575466790552
 10
6.090358828984378
 20
0.1441037560470395
 10
6.093507279087546
 20
0.1464866244756102
 10
6.096718212790221
 20
0.149078767364621
 10
6.099750462262917
 20
0.1517830349429694
 10
6.102372740507277
 20
0.1544921596741631
 10
6.104343524292396
 20
0.1570789938923376
 10
6.105431645087037
 20
0.159446269359254
 10
6.105415696723959
 20
0.1614766007730175
 10
6.104034275842877
 20
0.163053076700308
 10
6.101075975574801
 20
0.1640581933720906
 10
6.096299746557392
 20
0.1644048003155163
 10
6.089473946390846
 20
0.1639556320993343
 10
6.080347407947442
 20
0.1626136574195804
 10
6.070625106017182
 20
0.1607887066868798
 10
6.061852618953736
 20
0.1589425022773856
 10
6.053980187200124
 20
0.1570956351233228
 10
6.046977812861598
 20
0.1552484606261135
 10
6.040795973315461
 20
0.1534415683144807
 10
6.035384790537605
 20
0.1516855498223872
 10
6.030714503567537
 20
0.1500007591477654
 10
6.026715354251805
 20
0.1484080241571224
 10
6.023357581629909
 20
0.1469276988483852
 10
6.020591426144896
 20
0.14558037415377
 10
6.01837712753803
 20
0.1443865225383512
 10
6.016664926252339
 20
0.1433667349343466
 10
6.015414943561957
 20
0.1425314845085808
 10
6.014577538377054
 20
0.1419113614915233
 10
6.014102951140642
 20
0.141526956815385
 10
6.013951421594001
 20
0.1413987429452437
 10
6.006090554919204
 20
0.1371515703420858
 10
5.999004017494094
 20
0.1332652498042837
 10
5.992703467156928
 20
0.1298796530402306
 10
5.98721103491276
 20
0.1271745304841776
 10
5.982548496365247
 20
0.1252996346756241
 10
5.978727746286907
 20
0.1244148359194614
 10
5.975770560281397
 20
0.1246698867551892
 10
5.973698950886635
 20
0.1262345383188084
 10
5.972534812173407
 20
0.1292685424480666
 10
5.972279921148846
 20
0.1339218886167508
 10
5.972976170480251
 20
0.140354091728323
 10
5.97462557410904
 20
0.1487351398530716
 10
5.977249789171708
 20
0.1592047862322428
 10
5.98087094667332
 20
0.1719427813000856
 10
5.985510822217534
 20
0.1870988775961084
 10
5.991181192109728
 20
0.2048229461269422
 10
5.997264494908826
 20
0.2227921399612391
 10
6.004604366499997
 20
0.2429966044437499
 10
6.013097852222173
 20
0.2651875417895955
 10
6.022661877543619
 20
0.2891059179813595
 10
6.03319336933611
 20
0.3144929359359097
 10
6.044609253067925
 20
0.3410895616358296
 10
6.056806455610839
 20
0.3686369979979851
 10
6.069712020198522
 20
0.396886091836075
 10
6.083232873001009
 20
0.4255779275998162
 10
6.097255941591811
 20
0.4544538266732286
 10
6.111718031568557
 20
0.4832445188063517
 10
6.126506307439072
 20
0.5117113239797018
 10
6.141537576204491
 20
0.5395852088776128
 10
6.156718882501969
 20
0.5666172572480584
 10
6.171957034034392
 20
0.5925385542425144
 10
6.187169074737191
 20
0.6171000651418162
 10
6.187383087883333
 20
0.6174375534723975
 10
6.187994537091284
 20
0.618400377374309
 10
6.189013184725013
 20
0.6199684197839055
 10
6.190398204321525
 20
0.6220721594819896
 10
6.192159121310481
 20
0.6246714808084093
 10
6.194275344759688
 20
0.627716624206192
 10
6.196726283736907
 20
0.6311578301183581
 10
6.199511582840727
 20
0.6349651006501525
 10
6.202610414204634
 20
0.6390686776480976
 10
6.206002423830703
 20
0.6434388001517153
 10
6.209686900916082
 20
0.6480154723714993
 10
6.21364337299569
 20
0.6527589340487232
 10
6.217861248435568
 20
0.6576193071592656
 10
6.222319936303492
 20
0.6625468321461572
 10
6.227018962730895
 20
0.6675015118163845
 10
6.23192773748731
 20
0.6724337050801133
 10
6.234819404448764
 20
0.6750896347071969
 10
6.237798814218784
 20
0.6775545114632085
 10
6.24071668812644
 20
0.679890108144793
 10
6.243473388590629
 20
0.6821276073181366
 10
6.245939280135516
 20
0.6842985469508492
 10
6.248004844348876
 20
0.6864442273745031
 10
6.249520684092658
 20
0.6886164220875007
 10
6.250397042616874
 20
0.6908361958906255
 10
6.250494403614553
 20
0.6931452045168829
 10
6.24968336854414
 20
0.695594984530386
 10
6.247864299824534
 20
0.6982167184973154
 10
6.244907561979886
 20
0.7010419443852829
 10
6.240673757170384
 20
0.7041223172255418
 10
6.235073247113177
 20
0.7074889011171291
 10
6.22795651620305
 20
0.7111834702601936
 10
6.219213927560666
 20
0.7152373256880616
 10
6.209548915669088
 20
0.7190920948297439
 10
6.20097771435212
 20
0.7215738095563094
 10
6.193330217072343
 20
0.7226744845109323
 10
6.186436317292312
 20
0.7223861343367802
 10
6.180145788603972
 20
0.7206905374444883
 10
6.174288524469886
 20
0.7175797084772278
 10
6.168694418352629
 20
0.713045662078164
 10
6.163203363013018
 20
0.7070802944233297
 10
6.157645133446486
 20
0.6996656208576404
 10
6.151869503244967
 20
0.69078341979173
 10
6.145696603507047
 20
0.6804458229324162
 10
6.138976089357541
 20
0.6686246093920794
 10
6.131537854259008
 20
0.6553117938138886
 10
6.123211791674016
 20
0.6404993908410149
 10
6.113837794363391
 20
0.6241792966494871
 10
6.103245637322558
 20
0.6063335265842209
 10
6.092522423200165
 20
0.5883993029075363
 10
6.082795133370723
 20
0.5718033747149356
 10
6.074043532303434
 20
0.556525980344194
 10
6.066197387976266
 20
0.5425479504688067
 10
6.059236109456989
 20
0.5298195255317975
 10
6.053109700254353
 20
0.5183412978688793
 10
6.047767571541371
 20
0.5080638633245034
 10
6.043179725423293
 20
0.4989875773000972
 10
6.039285692242032
 20
0.4910731534055053
 10
6.036055118701412
 20
0.4842909491474022
 10
6.033437771375886
 20
0.478621558264992
 10
6.031393416138151
 20
0.4740454560303445
 10
6.029881581926638
 20
0.4705231191190187
 10
6.028852153782935
 20
0.4680451405684743
 10
6.028264660645476
 20
0.4665719970542739
 10
6.028078868386948
 20
0.4660841638484801
 10
6.027894497734138
 20
0.4657163222217147
 10
6.027342570447125
 20
0.4647127903239383
 10
6.026454979894957
 20
0.4632332015257603
  0
LWPOLYLINE
  5
292
102
{ACAD_REACTORS
330
2D5
102
}
330
282
100
AcDbEntity
  8
TITLE
 62
     7
100
AcDbPolyline
 90
        6
 70
     1
 43
0.0
 10
0.5872478895510227
 20
0.655584236907604
 10
0.5784469201072824
 20
0.6251663649102018
 10
0.5632120096810454
 20
0.5758833901186513
 10
0.5403844277036143
 20
0.50362875150587
 10
0.5215346128266063
 20
0.4446679223130694
 10
0.3905096491990463
 20
0.431519214909061
  0
ENDBLK
  5
294
330
282
100
AcDbEntity
  8
0
100
AcDbBlockEnd
  0
BLOCK
  5
57F
330
574
100
AcDbEntity
  8
0
100
AcDbBlockBegin
  2
*D20
 70
     1
 10
0.0
 20
0.0
 30
0.0
  3
*D20
  1

  0
LINE
  5
683
330
574
100
AcDbEntity
  8
DIM
 62
     0
370
    -2
100
AcDbLine
 10
7.807017152869264
 20
20.35197260745519
 30
0.0
 11
6.465511215349059
 21
20.35197260745519
 31
0.0
  0
LINE
  5
684
330
574
100
AcDbEntity
  8
DIM
 62
     0
370
    -2
100
AcDbLine
 10
6.58301121534906
 20
22.35191382016802
 30
0.0
 11
6.46551121534906
 21
22.35191382016802
 31
0.0
  0
LINE
  5
685
330
574
100
AcDbEntity
  8
DIM
 62
     0
370
    -2
100
AcDbLine
 10
6.645511215349059
 20
20.53197260745518
 30
0.0
 11
6.645511215349059
 21
21.0219432138116
 31
0.0
  0
LINE
  5
686
330
574
100
AcDbEntity
  8
DIM
 62
     0
370
    -2
100
AcDbLine
 10
6.64551121534906
 20
22.17191382016801
 30
0.0
 11
6.645511215349059
 21
21.6819432138116
 31
0.0
  0
SOLID
  5
687
330
574
100
AcDbEntity
  8
DIM
 62
     0
100
AcDbTrace
 10
6.615511215349059
 20
20.53197260745518
 30
0.0
 11
6.675511215349059
 21
20.53197260745518
 31
0.0
 12
6.645511215349059
 22
20.35197260745519
 32
0.0
 13
6.645511215349059
 23
20.35197260745519
 33
0.0
  0
SOLID
  5
688
330
574
100
AcDbEntity
  8
DIM
 62
     0
100
AcDbTrace
 10
6.61551121534906
 20
22.17191382016801
 30
0.0
 11
6.67551121534906
 21
22.17191382016801
 31
0.0
 12
6.64551121534906
 22
22.35191382016802
 32
0.0
 13
6.64551121534906
 23
22.35191382016802
 33
0.0
  0
MTEXT
  5
689
330
574
100
AcDbEntity
  8
DIM
 62
     0
100
AcDbMText
 10
6.645511215349055
 20
21.3519432138116
 30
0.0
 40
0.18
 41
0.0
 71
     5
 72
     1
  1
\A1;51mm\P(2") minimum
 73
     1
 44
1.0
1001
ACAD
1000
MTEXTBEGIN
1070
    73
1070
     1
1070
    44
1040
1.0
1070
    74
1070
     0
1000
MTEXTEND
  0
POINT
  5
68A
330
574
100
AcDbEntity
  8
DEFPOINTS
 62
     0
100
AcDbPoint
 10
7.869517152869264
 20
20.35197260745519
 30
0.0
  0
POINT
  5
68B
330
574
100
AcDbEntity
  8
DEFPOINTS
 62
     0
100
AcDbPoint
 10
6.64551121534906
 20
22.35191382016802
 30
0.0
  0
POINT
  5
68C
330
574
100
AcDbEntity
  8
DEFPOINTS
 62
     0
100
AcDbPoint
 10
6.64551121534906
 20
22.35191382016802
 30
0.0
  0
ENDBLK
  5
580
330
574
100
AcDbEntity
  8
0
100
AcDbBlockEnd
  0
BLOCK
  5
630
330
625
100
AcDbEntity
  8
0
100
AcDbBlockBegin
  2
*D21
 70
     1
 10
0.0
 20
0.0
 30
0.0
  3
*D21
  1

  0
LINE
  5
679
330
625
100
AcDbEntity
  8
DIM
 62
     0
370
    -2
100
AcDbLine
 10
7.937868973375258
 20
20.35197260745519
 30
0.0
 11
6.520796121495337
 21
20.35197260745519
 31
0.0
  0
LINE
  5
67A
330
625
100
AcDbEntity
  8
DIM
 62
     0
370
    -2
100
AcDbLine
 10
7.717710200154655
 20
17.48284321355852
 30
0.0
 11
6.520796121495336
 21
17.48284321355852
 31
0.0
  0
LINE
  5
67B
330
625
100
AcDbEntity
  8
DIM
 62
     0
370
    -2
100
AcDbLine
 10
6.645796121495337
 20
20.22697260745519
 30
0.0
 11
6.645796121495337
 21
19.06990791050685
 31
0.0
  0
LINE
  5
67C
330
625
100
AcDbEntity
  8
DIM
 62
     0
370
    -2
100
AcDbLine
 10
6.645796121495336
 20
17.60784321355852
 30
0.0
 11
6.645796121495337
 21
18.76490791050686
 31
0.0
  0
SOLID
  5
67D
330
625
100
AcDbEntity
  8
DIM
 62
     0
100
AcDbTrace
 10
6.624962788162004
 20
20.22697260745519
 30
0.0
 11
6.66662945482867
 21
20.22697260745519
 31
0.0
 12
6.645796121495337
 22
20.35197260745519
 32
0.0
 13
6.645796121495337
 23
20.35197260745519
 33
0.0
  0
SOLID
  5
67E
330
625
100
AcDbEntity
  8
DIM
 62
     0
100
AcDbTrace
 10
6.624962788162003
 20
17.60784321355852
 30
0.0
 11
6.666629454828669
 21
17.60784321355852
 31
0.0
 12
6.645796121495336
 22
17.48284321355852
 32
0.0
 13
6.645796121495336
 23
17.48284321355852
 33
0.0
  0
MTEXT
  5
67F
330
625
100
AcDbEntity
  8
DIM
 62
     0
100
AcDbMText
 10
6.645796121495333
 20
18.91740791050685
 30
0.0
 40
0.125
 41
0.0
 71
     5
 72
     1
  1
\A1;2.88 [73]
 73
     1
 44
1.0
1001
ACAD
1000
MTEXTBEGIN
1070
    73
1070
     1
1070
    44
1040
1.0
1070
    74
1070
     0
1000
MTEXTEND
  0
POINT
  5
680
330
625
100
AcDbEntity
  8
DEFPOINTS
 62
     0
100
AcDbPoint
 10
8.000368973375259
 20
20.35197260745519
 30
0.0
  0
POINT
  5
681
330
625
100
AcDbEntity
  8
DEFPOINTS
 62
     0
100
AcDbPoint
 10
7.780210200154655
 20
17.48284321355852
 30
0.0
  0
POINT
  5
682
330
625
100
AcDbEntity
  8
DEFPOINTS
 62
     0
100
AcDbPoint
 10
6.645796121495336
 20
17.48284321355852
 30
0.0
  0
ENDBLK
  5
631
330
625
100
AcDbEntity
  8
0
100
AcDbBlockEnd
  0
BLOCK
  5
81E
330
81A
100
AcDbEntity
  8
0
100
AcDbBlockBegin
  2
Full Scale Note
 70
     0
 10
0.0
 20
0.0
 30
0.0
  3
Full Scale Note
  1

  0
MTEXT
  5
81B
330
81A
100
AcDbEntity
  8
0
100
AcDbMText
 10
0.2597905740913617
 20
-0.0059087464970027
 30
0.0
 40
0.12
 41
11.39473342052524
 71
     5
 72
     5
  1
{\fArial|b0|i0|c0|p34;WHEN PRINTED FULL SCALE, THIS MARK SHOULD MEASURE 12" AS NOTED\PAMERICAN STANDARD IS NOT RESPONSIBLE FOR INCORRECT COUNTERTOP CUTOUT\PIF THIS TEMPLATE IS NOT PLOTTED TO FULL SCALE}
 73
     1
 44
1.0
1001
ACAD
1000
MTEXTBEGIN
1070
    73
1070
     1
1070
    44
1040
1.0
1070
    74
1070
     0
1000
MTEXTEND
  0
ENDBLK
  5
81F
330
81A
100
AcDbEntity
  8
0
100
AcDbBlockEnd
  0
ENDSEC
  0
SECTION
  2
ENTITIES
  0
TEXT
  5
BC
330
1E
100
AcDbEntity
  8
OBJ2
 62
     6
100
AcDbText
 10
28.74932391577856
 20
0.0561036198991332
 30
0.0
 40
0.125
  1
FULL
100
AcDbText
  0
TEXT
  5
D6
330
1E
100
AcDbEntity
  8
TEXT
100
AcDbText
 10
27.59929007195498
 20
2.114652675396953
 30
0.0
 40
0.15
  1
OVALYN
100
AcDbText
  0
TEXT
  5
D7
330
1E
100
AcDbEntity
  8
TEXT
100
AcDbText
 10
26.3027825333877
 20
1.858261874149881
 30
0.0
 40
0.15
  1
UNIVERSAL ACCESS TEMPLATE
100
AcDbText
  0
TEXT
  5
D9
330
1E
100
AcDbEntity
  8
TEXT
100
AcDbText
 10
29.42959055389727
 20
0.1030144634112347
 30
0.0
 40
0.15
  1
730554-400
100
AcDbText
  0
TEXT
  5
DA
330
1E
100
AcDbEntity
  8
TEXT
100
AcDbText
 10
26.70077886455151
 20
0.6848932819891758
 30
0.0
 40
0.09
  1
GEE
100
AcDbText
  0
TEXT
  5
DB
330
1E
100
AcDbEntity
  8
TEXT
100
AcDbText
 10
28.63923351260196
 20
0.3191408605076589
 30
0.0
 40
0.09
  1
10/7/02
100
AcDbText
  0
LINE
  5
DD
330
1E
100
AcDbEntity
  8
CEN
100
AcDbLine
 10
15.43044199221166
 20
19.52232139339379
 30
0.0
 11
15.43044199221167
 21
16.67384314603793
 31
0.0
  0
LINE
  5
DE
330
1E
100
AcDbEntity
  8
CEN
100
AcDbLine
 10
4.978878605473231
 20
11.18725728765697
 30
0.0
 11
8.853462231648475
 21
11.18725728765697
 31
0.0
  0
ARC
  5
103
330
1E
100
AcDbEntity
  8
OBJ
100
AcDbCircle
 10
15.37545914233233
 20
15.04122369574038
 30
0.0
 40
11.75
100
AcDbArc
 50
270.2680169532998
 51
303.1792647279103
  0
ARC
  5
104
330
1E
100
AcDbEntity
  8
OBJ
100
AcDbCircle
 10
17.68930085220307
 20
11.18725728765697
 30
0.0
 40
7.25
100
AcDbArc
 50
306.6322776494351
 51
0.0
  0
LINE
  5
10B
330
1E
100
AcDbEntity
  8
CEN
100
AcDbLine
 10
15.43044199221167
 20
5.643841461222223
 30
0.0
 11
15.43044199221167
 21
2.612909054310534
 31
0.0
  0
LINE
  5
118
330
1E
100
AcDbEntity
  8
CEN
100
AcDbLine
 10
22.19378258817442
 20
11.18725728765697
 30
0.0
 11
25.78347018532229
 21
11.18725728765697
 31
0.0
  0
CIRCLE
  5
122
330
1E
100
AcDbEntity
  8
OBJ
100
AcDbCircle
 10
7.455388297001237
 20
16.78908635396928
 30
0.0
 40
0.12
  0
CIRCLE
  5
123
330
1E
100
AcDbEntity
  8
OBJ
100
AcDbCircle
 10
7.467462551723585
 20
5.605535039677428
 30
0.0
 40
0.12
  0
CIRCLE
  5
124
330
1E
100
AcDbEntity
  8
OBJ
100
AcDbCircle
 10
23.48711174427909
 20
5.655942988976598
 30
0.0
 40
0.12
  0
CIRCLE
  5
125
330
1E
100
AcDbEntity
  8
OBJ
100
AcDbCircle
 10
23.43366891713381
 20
16.78506497972893
 30
0.0
 40
0.12
  0
LINE
  5
12C
330
1E
100
AcDbEntity
  8
OBJ
100
AcDbLine
 10
23.36211174427909
 20
5.655942988976598
 30
0.0
 11
23.61211174427909
 21
5.655942988976598
 31
0.0
  0
LINE
  5
12D
330
1E
100
AcDbEntity
  8
OBJ
100
AcDbLine
 10
23.48711174427909
 20
5.530942988976598
 30
0.0
 11
23.48711174427909
 21
5.780942988976598
 31
0.0
  0
LINE
  5
12F
330
1E
100
AcDbEntity
  8
OBJ
100
AcDbLine
 10
7.342462551723585
 20
5.605535039677428
 30
0.0
 11
7.592462551723585
 21
5.605535039677428
 31
0.0
  0
LINE
  5
130
330
1E
100
AcDbEntity
  8
OBJ
100
AcDbLine
 10
7.467462551723585
 20
5.480535039677428
 30
0.0
 11
7.467462551723585
 21
5.730535039677428
 31
0.0
  0
LINE
  5
132
330
1E
100
AcDbEntity
  8
OBJ
100
AcDbLine
 10
7.330388297001237
 20
16.78908635396928
 30
0.0
 11
7.580388297001237
 21
16.78908635396928
 31
0.0
  0
LINE
  5
133
330
1E
100
AcDbEntity
  8
OBJ
100
AcDbLine
 10
7.455388297001237
 20
16.66408635396928
 30
0.0
 11
7.455388297001237
 21
16.91408635396928
 31
0.0
  0
LINE
  5
137
330
1E
100
AcDbEntity
  8
OBJ
100
AcDbLine
 10
23.30866891713381
 20
16.78506497972893
 30
0.0
 11
23.55866891713381
 21
16.78506497972893
 31
0.0
  0
LINE
  5
138
330
1E
100
AcDbEntity
  8
OBJ
100
AcDbLine
 10
23.43366891713381
 20
16.66006497972893
 30
0.0
 11
23.43366891713381
 21
16.91006497972893
 31
0.0
  0
TEXT
  5
426
330
1E
100
AcDbEntity
  8
DIM
100
AcDbText
 10
44.32095846629367
 20
12.72955084613649
 30
0.0
 40
0.187
  1

100
AcDbText
  0
TEXT
  5
427
330
1E
100
AcDbEntity
  8
DIM
100
AcDbText
 10
44.5111472427385
 20
13.41624875695053
 30
0.0
 40
0.187
  1

100
AcDbText
  0
TEXT
  5
428
330
1E
100
AcDbEntity
  8
DIM
100
AcDbText
 10
44.5111472427385
 20
13.7279154236172
 30
0.0
 40
0.187
  1

100
AcDbText
  0
TEXT
  5
429
330
1E
100
AcDbEntity
  8
DIM
100
AcDbText
 10
44.5111472427385
 20
14.03958209028386
 30
0.0
 40
0.187
  1

100
AcDbText
  0
TEXT
  5
42A
330
1E
100
AcDbEntity
  8
DIM
100
AcDbText
 10
44.5111472427385
 20
14.35124875695053
 30
0.0
 40
0.187
  1

100
AcDbText
  0
TEXT
  5
42B
330
1E
100
AcDbEntity
  8
DIM
100
AcDbText
 10
44.5111472427385
 20
14.6629154236172
 30
0.0
 40
0.187
  1

100
AcDbText
  0
TEXT
  5
42C
330
1E
100
AcDbEntity
  8
DIM
100
AcDbText
 10
44.5111472427385
 20
14.97458209028386
 30
0.0
 40
0.187
  1

100
AcDbText
  0
TEXT
  5
42D
330
1E
100
AcDbEntity
  8
DIM
100
AcDbText
 10
44.5111472427385
 20
13.10458209028386
 30
0.0
 40
0.187
  1

100
AcDbText
  0
TEXT
  5
42E
330
1E
100
AcDbEntity
  8
DIM
100
AcDbText
 10
44.32095846629367
 20
10.9578602201427
 30
0.0
 40
0.187
  1

100
AcDbText
  0
TEXT
  5
434
330
1E
100
AcDbEntity
  8
DIM
100
AcDbText
 10
58.6628117027121
 20
17.63744231679005
 30
0.0
 40
0.125
  1

  7
ROMANT
100
AcDbText
  0
MTEXT
  5
435
330
1E
100
AcDbEntity
  8
0
 62
     6
100
AcDbMText
 10
26.44760476870456
 20
16.99090613198254
 30
0.0
 40
0.12
 41
4.754466705650606
 71
     1
 72
     5
  1
Outer contour of basin rim\PLinea exterior del borde de el lavamanos\PContour extérieur du rebord du lavabo
  7
STD
 73
     1
 44
1.0
1001
ACAD
1000
MTEXTBEGIN
1070
    73
1070
     1
1070
    44
1040
1.0
1070
    74
1070
     0
1000
MTEXTEND
  0
TEXT
  5
436
330
1E
100
AcDbEntity
  8
0
 62
     6
100
AcDbText
 10
13.70827656334423
 20
19.5882932080319
 30
0.0
 40
0.18
  1
Back / Atrás / Arrière
  7
STD
 72
     1
 11
15.59827656334423
 21
19.5882932080319
 31
0.0
100
AcDbText
  0
TEXT
  5
437
330
1E
100
AcDbEntity
  8
0
 62
     6
100
AcDbText
 10
13.39491086719097
 20
2.25841698319687
 30
0.0
 40
0.18
  1
Front / Frente / Avant 
  7
STD
100
AcDbText
  0
TEXT
  5
438
330
1E
100
AcDbEntity
  8
DIM
100
AcDbText
 10
58.59307416326368
 20
6.465672429055253
 30
0.0
 40
0.2
  1
                  
  7
ROMANT
100
AcDbText
  0
TEXT
  5
439
330
1E
100
AcDbEntity
  8
DIM
100
AcDbText
 10
58.66281170271209
 20
18.06814368246359
 30
0.0
 40
0.125
  1

  7
ROMANT
100
AcDbText
  0
LINE
  5
43A
330
1E
100
AcDbEntity
  8
DIM
  6
Continuous
100
AcDbLine
 10
25.84627381150929
 20
16.80327574266054
 30
0.0
 11
26.24771312358439
 21
16.80327574266054
 31
0.0
  0
LINE
  5
43C
330
1E
100
AcDbEntity
  8
CEN
100
AcDbLine
 10
25.74016816942293
 20
20.35091870265977
 30
0.0
 11
8.000368973375259
 21
20.35197260745519
 31
0.0
  0
LINE
  5
43E
330
1E
100
AcDbEntity
  8
TITLE
100
AcDbLine
 10
27.89808029073421
 20
22.3447600778765
 30
0.0
 11
4.0710009482993
 21
22.3447600778765
 31
0.0
  0
LINE
  5
440
330
1E
100
AcDbEntity
  8
TITLE
 48
5.0
100
AcDbLine
 10
5.624878268187572
 20
22.34367463418044
 30
0.0
 11
5.483101444052948
 21
22.57514492675179
 31
0.0
  0
LINE
  5
441
330
1E
100
AcDbEntity
  8
TITLE
 48
5.0
100
AcDbLine
 10
6.350089376176441
 20
22.3567488196546
 30
0.0
 11
6.208312552041817
 21
22.58821911222596
 31
0.0
  0
LINE
  5
442
330
1E
100
AcDbEntity
  8
TITLE
 48
5.0
100
AcDbLine
 10
7.350089376176441
 20
22.3567488196546
 30
0.0
 11
7.208312552041817
 21
22.58821911222596
 31
0.0
  0
LINE
  5
443
330
1E
100
AcDbEntity
  8
TITLE
 48
5.0
100
AcDbLine
 10
8.350089376176441
 20
22.3567488196546
 30
0.0
 11
8.208312552041817
 21
22.58821911222596
 31
0.0
  0
LINE
  5
444
330
1E
100
AcDbEntity
  8
TITLE
 48
5.0
100
AcDbLine
 10
9.350089376176441
 20
22.3567488196546
 30
0.0
 11
9.208312552041817
 21
22.58821911222596
 31
0.0
  0
LINE
  5
445
330
1E
100
AcDbEntity
  8
TITLE
 48
5.0
100
AcDbLine
 10
10.35008937617644
 20
22.3567488196546
 30
0.0
 11
10.20831255204182
 21
22.58821911222596
 31
0.0
  0
LINE
  5
446
330
1E
100
AcDbEntity
  8
TITLE
 48
5.0
100
AcDbLine
 10
11.35008937617644
 20
22.3567488196546
 30
0.0
 11
11.20831255204182
 21
22.58821911222596
 31
0.0
  0
LINE
  5
447
330
1E
100
AcDbEntity
  8
TITLE
 48
5.0
100
AcDbLine
 10
12.35008937617644
 20
22.3567488196546
 30
0.0
 11
12.20831255204182
 21
22.58821911222596
 31
0.0
  0
LINE
  5
448
330
1E
100
AcDbEntity
  8
TITLE
 48
5.0
100
AcDbLine
 10
13.35008937617644
 20
22.3567488196546
 30
0.0
 11
13.20831255204182
 21
22.58821911222596
 31
0.0
  0
LINE
  5
449
330
1E
100
AcDbEntity
  8
TITLE
 48
5.0
100
AcDbLine
 10
14.62487826818757
 20
22.34367463418044
 30
0.0
 11
14.48310144405295
 21
22.57514492675179
 31
0.0
  0
LINE
  5
44A
330
1E
100
AcDbEntity
  8
TITLE
 48
5.0
100
AcDbLine
 10
15.62487826818757
 20
22.34367463418044
 30
0.0
 11
15.48310144405295
 21
22.57514492675179
 31
0.0
  0
LINE
  5
44B
330
1E
100
AcDbEntity
  8
TITLE
 48
5.0
100
AcDbLine
 10
16.61095738313877
 20
22.34367463418042
 30
0.0
 11
16.46918055900414
 21
22.57514492675178
 31
0.0
  0
LINE
  5
44C
330
1E
100
AcDbEntity
  8
TITLE
 48
5.0
100
AcDbLine
 10
17.17914616862336
 20
22.39597137607706
 30
0.0
 11
17.03736934448874
 21
22.62744166864842
 31
0.0
  0
LINE
  5
44D
330
1E
100
AcDbEntity
  8
TITLE
 48
5.0
100
AcDbLine
 10
18.17914616862336
 20
22.39597137607706
 30
0.0
 11
18.03736934448874
 21
22.62744166864842
 31
0.0
  0
LINE
  5
44E
330
1E
100
AcDbEntity
  8
TITLE
 48
5.0
100
AcDbLine
 10
19.17914616862336
 20
22.39597137607706
 30
0.0
 11
19.03736934448874
 21
22.62744166864842
 31
0.0
  0
LINE
  5
44F
330
1E
100
AcDbEntity
  8
TITLE
 48
5.0
100
AcDbLine
 10
20.17914616862336
 20
22.39597137607706
 30
0.0
 11
20.03736934448874
 21
22.62744166864842
 31
0.0
  0
LINE
  5
450
330
1E
100
AcDbEntity
  8
TITLE
 48
5.0
100
AcDbLine
 10
21.17914616862336
 20
22.39597137607706
 30
0.0
 11
21.03736934448874
 21
22.62744166864842
 31
0.0
  0
LINE
  5
451
330
1E
100
AcDbEntity
  8
TITLE
 48
5.0
100
AcDbLine
 10
22.17914616862336
 20
22.39597137607706
 30
0.0
 11
22.03736934448874
 21
22.62744166864842
 31
0.0
  0
LINE
  5
452
330
1E
100
AcDbEntity
  8
TITLE
 48
5.0
100
AcDbLine
 10
23.17914616862336
 20
22.39597137607706
 30
0.0
 11
23.03736934448874
 21
22.62744166864842
 31
0.0
  0
LINE
  5
453
330
1E
100
AcDbEntity
  8
TITLE
 48
5.0
100
AcDbLine
 10
24.17914616862336
 20
22.39597137607706
 30
0.0
 11
24.03736934448874
 21
22.62744166864842
 31
0.0
  0
LINE
  5
454
330
1E
100
AcDbEntity
  8
TITLE
 48
5.0
100
AcDbLine
 10
25.17914616862336
 20
22.39597137607706
 30
0.0
 11
25.03736934448874
 21
22.62744166864842
 31
0.0
  0
LINE
  5
455
330
1E
100
AcDbEntity
  8
TITLE
 48
5.0
100
AcDbLine
 10
26.17914616862336
 20
22.39597137607706
 30
0.0
 11
26.03736934448874
 21
22.62744166864842
 31
0.0
  0
LINE
  5
456
330
1E
100
AcDbEntity
  8
TITLE
 48
5.0
100
AcDbLine
 10
27.17914616862336
 20
22.39597137607706
 30
0.0
 11
27.03736934448874
 21
22.62744166864842
 31
0.0
  0
MTEXT
  5
45F
330
1E
100
AcDbEntity
  8
0
 62
     6
100
AcDbMText
 10
24.036922329779
 20
21.14719960445282
 30
0.0
 40
0.15
 41
4.049999999999999
 71
     1
 72
     5
  1
Centerline of faucet\PLínea central del grifo\PAxe du robinet
  7
STD
 73
     1
 44
1.0
1001
ACAD
1000
MTEXTBEGIN
1070
    73
1070
     1
1070
    44
1040
1.0
1070
    74
1070
     0
1000
MTEXTEND
  0
DIMENSION
  5
462
330
1E
100
AcDbEntity
  8
DIM
100
AcDbDimension
  2
*D20
 10
6.64551121534906
 20
22.35191382016802
 30
0.0
 11
6.645511215349055
 21
21.3519432138116
 31
0.0
 70
    32
  1
51mm\P(2") minimum
 71
     5
 42
1.99994121271283
  3
Standard
100
AcDbAlignedDimension
 13
7.869517152869264
 23
20.35197260745519
 33
0.0
 14
6.64551121534906
 24
22.35191382016802
 34
0.0
 50
90.0
100
AcDbRotatedDimension
  0
LWPOLYLINE
  5
463
330
1E
100
AcDbEntity
  8
7
  6
Continuous
100
AcDbPolyline
 90
        7
 70
     0
 43
0.0
 10
12.15405774715643
 20
7.910385845537813
 10
12.22830774715644
 20
7.910385845537813
 10
12.28230774715643
 20
7.914885845537813
 10
12.31605774715643
 20
7.930635845537814
 10
12.33405774715643
 20
7.962135845537812
 10
12.33855774715644
 20
8.004885845537812
 10
12.33855774715644
 20
8.171385845537812
  0
LWPOLYLINE
  5
464
330
1E
100
AcDbEntity
  8
7
  6
Continuous
100
AcDbPolyline
 90
       11
 70
     0
 43
0.0
 10
12.05280774715643
 20
8.405385845537816
 10
12.05280774715643
 20
8.182635845537813
 10
12.00330774715643
 20
8.182635845537813
 10
12.00330774715643
 20
8.405385845537816
 10
12.05280774715643
 20
8.405385845537816
 10
12.14955774715643
 20
8.405385845537816
 10
12.20130774715644
 20
8.405385845537816
 10
12.20130774715644
 20
8.182635845537813
 10
12.14955774715643
 20
8.182635845537813
 10
12.14955774715643
 20
8.405385845537816
 10
12.05280774715643
 20
8.405385845537816
  0
LWPOLYLINE
  5
465
330
1E
100
AcDbEntity
  8
7
  6
Continuous
100
AcDbPolyline
 90
       10
 70
     0
 43
0.0
 10
12.05280774715643
 20
8.405385845537816
 10
12.05280774715643
 20
8.182635845537813
 10
12.00330774715643
 20
8.182635845537813
 10
12.00330774715643
 20
8.405385845537816
 10
12.05280774715643
 20
8.405385845537816
 10
12.14955774715643
 20
8.405385845537816
 10
12.20130774715644
 20
8.405385845537816
 10
12.20130774715644
 20
8.182635845537813
 10
12.14955774715643
 20
8.182635845537813
 10
12.14955774715643
 20
8.405385845537816
  0
LWPOLYLINE
  5
466
330
1E
100
AcDbEntity
  8
7
  6
Continuous
100
AcDbPolyline
 90
        2
 70
     0
 43
0.0
 10
12.07980774715643
 20
7.983629935855418
 10
12.12480774715644
 20
7.983629935855418
  0
LWPOLYLINE
  5
467
330
1E
100
AcDbEntity
  8
7
  6
Continuous
100
AcDbPolyline
 90
        2
 70
     0
 43
0.0
 10
12.06405774715644
 20
7.929418220459425
 10
12.14055774715643
 20
7.929418220459425
  0
LWPOLYLINE
  5
468
330
1E
100
AcDbEntity
  8
7
  6
Continuous
100
AcDbPolyline
 90
        8
 70
     0
 43
0.0
 10
12.18330774715643
 20
7.847385845537811
 10
12.16080774715644
 20
7.813635845537815
 10
12.10230774715643
 20
7.800135845537814
 10
12.04605774715643
 20
7.813635845537815
 10
12.02130774715643
 20
7.847385845537811
 10
12.02130774715643
 20
7.858635845537815
 10
12.18105774715644
 20
7.858635845537815
 10
12.18330774715643
 20
7.847385845537811
  0
LWPOLYLINE
  5
469
330
1E
100
AcDbEntity
  8
7
  6
Continuous
100
AcDbPolyline
 90
        2
 70
     0
 43
0.0
 10
11.31255774715643
 20
8.378385845537815
 10
11.46105774715644
 20
8.526885845537815
  0
LWPOLYLINE
  5
46A
330
1E
100
AcDbEntity
  8
7
  6
Continuous
100
AcDbPolyline
 90
        2
 70
     0
 43
0.0
 10
11.27430774715643
 20
8.193885845537813
 10
11.60730774715643
 20
8.526885845537815
  0
LWPOLYLINE
  5
46B
330
1E
100
AcDbEntity
  8
7
  6
Continuous
100
AcDbPolyline
 90
        2
 70
     0
 43
0.0
 10
11.40705774715643
 20
8.182635845537813
 10
11.75355774715643
 20
8.526885845537815
  0
LWPOLYLINE
  5
46C
330
1E
100
AcDbEntity
  8
7
  6
Continuous
100
AcDbPolyline
 90
        2
 70
     0
 43
0.0
 10
11.84805774715644
 20
8.182635845537813
 10
11.99655774715643
 20
8.331135845537813
  0
LWPOLYLINE
  5
46D
330
1E
100
AcDbEntity
  8
7
  6
Continuous
100
AcDbPolyline
 90
        2
 70
     0
 43
0.0
 10
12.07980774715643
 20
8.412135845537816
 10
12.19455774715644
 20
8.529135845537815
  0
LWPOLYLINE
  5
46E
330
1E
100
AcDbEntity
  8
7
  6
Continuous
100
AcDbPolyline
 90
        2
 70
     0
 43
0.0
 10
12.20355774715643
 20
8.391885845537816
 10
12.33855774715644
 20
8.526885845537815
  0
LWPOLYLINE
  5
46F
330
1E
100
AcDbEntity
  8
7
  6
Continuous
100
AcDbPolyline
 90
        2
 70
     0
 43
0.0
 10
12.21255774715644
 20
8.252385845537816
 10
12.48480774715643
 20
8.524635845537812
  0
LWPOLYLINE
  5
470
330
1E
100
AcDbEntity
  8
7
  6
Continuous
100
AcDbPolyline
 90
        2
 70
     0
 43
0.0
 10
12.28680774715643
 20
8.182635845537813
 10
12.63105774715643
 20
8.524635845537812
  0
LWPOLYLINE
  5
471
330
1E
100
AcDbEntity
  8
7
  6
Continuous
100
AcDbPolyline
 90
        2
 70
     0
 43
0.0
 10
12.43305774715644
 20
8.182635845537813
 10
12.77955774715643
 20
8.526885845537815
  0
LWPOLYLINE
  5
472
330
1E
100
AcDbEntity
  8
7
  6
Continuous
100
AcDbPolyline
 90
        2
 70
     0
 43
0.0
 10
12.57930774715643
 20
8.182635845537813
 10
12.78855774715644
 20
8.389635845537815
  0
LWPOLYLINE
  5
473
330
1E
100
AcDbEntity
  8
7
  6
Continuous
100
AcDbPolyline
 90
        2
 70
     0
 43
0.0
 10
12.72780774715644
 20
8.182635845537813
 10
12.76380774715644
 20
8.218635845537814
  0
LWPOLYLINE
  5
474
330
1E
100
AcDbEntity
  8
7
  6
Continuous
100
AcDbPolyline
 90
       10
 70
     0
 43
0.0
 10
12.14505774715643
 20
8.178135845537813
 10
12.79530774715644
 20
8.178135845537813
 10
12.77055774715644
 20
8.214135845537814
 10
12.77955774715643
 20
8.256885845537812
 10
12.79980774715643
 20
8.299635845537812
 10
12.79080774715644
 20
8.342385845537814
 10
12.79305774715643
 20
8.382885845537815
 10
12.82005774715643
 20
8.454885845537816
 10
12.84480774715643
 20
8.526885845537815
 10
12.24227868725032
 20
8.526885845537815
  0
LWPOLYLINE
  5
475
330
1E
100
AcDbEntity
  8
TITLE
  6
Continuous
100
AcDbPolyline
 90
        3
 70
     0
 43
0.0
 10
11.45909910120378
 20
8.131757922884014
 10
11.42872410120379
 20
8.087882922884023
 10
11.22152890228881
 20
6.849957177467951
  0
LWPOLYLINE
  5
476
330
1E
100
AcDbEntity
  8
TITLE
  6
Continuous
100
AcDbPolyline
 90
        6
 70
     0
 43
0.0
 10
11.45909910120378
 20
8.131757922884014
 10
11.51417079429894
 20
8.151135845537806
 10
11.88630774715643
 20
8.151135845537812
 10
11.85480774715643
 20
7.930635845537814
 10
11.55555774715643
 20
7.930635845537814
 10
11.38885731431587
 20
6.849957177467951
  0
LINE
  5
477
330
1E
100
AcDbEntity
  8
7
100
AcDbLine
 10
12.21720921463367
 20
8.526885845537815
 30
0.0
 11
12.24227868725031
 21
8.526885845537815
 31
0.0
  0
LWPOLYLINE
  5
478
330
1E
100
AcDbEntity
  8
7
  6
Continuous
100
AcDbPolyline
 90
        2
 70
     0
 43
0.0
 10
12.21720921463367
 20
8.526885845537815
 10
11.96505233656229
 20
8.526885845537815
  0
LWPOLYLINE
  5
479
330
1E
100
AcDbEntity
  8
7
  6
Continuous
100
AcDbPolyline
 90
        7
 70
     0
 43
0.0
 10
11.94328704612833
 20
8.52688584553781
 10
11.41830774715643
 20
8.526885845537815
 10
11.37555774715644
 20
8.511135845537811
 10
11.33955774715643
 20
8.461635845537816
 10
11.29005774715644
 20
8.292885845537812
 10
11.27430774715643
 20
8.178135845537813
 10
12.05730774715643
 20
8.178135845537813
  0
LWPOLYLINE
  5
47A
330
1E
100
AcDbEntity
  8
7
  6
Continuous
100
AcDbPolyline
 90
        2
 70
     0
 43
0.0
 10
11.98461934964125
 20
8.465447448022629
 10
12.04605774715643
 20
8.526885845537815
  0
LWPOLYLINE
  5
47B
330
1E
100
AcDbEntity
  8
TITLE
  6
Continuous
100
AcDbPolyline
 90
        3
 70
     0
 43
0.0
 10
18.21589990305588
 20
8.131757922884016
 10
18.18552490305588
 20
8.087882922884022
 10
17.97552712441175
 20
6.833212650478614
  0
LWPOLYLINE
  5
47C
330
1E
100
AcDbEntity
  8
TITLE
  6
Continuous
100
AcDbPolyline
 90
        6
 70
     0
 43
0.0
 10
18.21589990305588
 20
8.131757922884016
 10
18.27097159615103
 20
8.151135845537808
 10
18.64310854900853
 20
8.151135845537814
 10
18.61160854900854
 20
7.930635845537816
 10
18.31235854900853
 20
7.930635845537816
 10
18.14307518381322
 20
6.833212650478614
  0
LWPOLYLINE
  5
47D
330
1E
100
AcDbEntity
  8
7
  6
Continuous
100
AcDbPolyline
 90
        2
 70
     0
 43
0.0
 10
18.06935854900853
 20
8.378385845537815
 10
18.21785854900853
 20
8.526885845537817
  0
LWPOLYLINE
  5
47E
330
1E
100
AcDbEntity
  8
7
  6
Continuous
100
AcDbPolyline
 90
        2
 70
     0
 43
0.0
 10
18.03110854900853
 20
8.193885845537812
 10
18.36410854900853
 20
8.526885845537817
  0
LWPOLYLINE
  5
47F
330
1E
100
AcDbEntity
  8
7
  6
Continuous
100
AcDbPolyline
 90
        7
 70
     0
 43
0.0
 10
18.70008784798042
 20
8.526885845537812
 10
18.17510854900853
 20
8.526885845537817
 10
18.13235854900853
 20
8.511135845537811
 10
18.09635854900853
 20
8.461635845537815
 10
18.04685854900853
 20
8.292885845537814
 10
18.03110854900853
 20
8.178135845537815
 10
18.81410854900854
 20
8.178135845537815
  0
LWPOLYLINE
  5
480
330
1E
100
AcDbEntity
  8
7
  6
Continuous
100
AcDbPolyline
 90
        2
 70
     0
 43
0.0
 10
18.60485854900854
 20
8.182635845537815
 10
18.75335854900853
 20
8.331135845537813
  0
LWPOLYLINE
  5
481
330
1E
100
AcDbEntity
  8
7
  6
Continuous
100
AcDbPolyline
 90
        2
 70
     0
 43
0.0
 10
19.04360854900853
 20
8.182635845537815
 10
19.38785854900853
 20
8.524635845537812
  0
LWPOLYLINE
  5
482
330
1E
100
AcDbEntity
  8
7
  6
Continuous
100
AcDbPolyline
 90
        2
 70
     0
 43
0.0
 10
19.18985854900853
 20
8.182635845537815
 10
19.53635854900853
 20
8.526885845537817
  0
LWPOLYLINE
  5
483
330
1E
100
AcDbEntity
  8
7
  6
Continuous
100
AcDbPolyline
 90
        2
 70
     0
 43
0.0
 10
19.33610854900853
 20
8.182635845537815
 10
19.61341224898283
 20
8.456957785297337
  0
LWPOLYLINE
  5
484
330
1E
100
AcDbEntity
  8
7
  6
Continuous
100
AcDbPolyline
 90
        2
 70
     0
 43
0.0
 10
18.16385854900853
 20
8.182635845537815
 10
18.51035854900853
 20
8.526885845537817
  0
LWPOLYLINE
  5
485
330
1E
100
AcDbEntity
  8
7
  6
Continuous
100
AcDbPolyline
 90
        8
 70
     0
 43
0.0
 10
18.94010854900853
 20
7.847385845537813
 10
18.91760854900853
 20
7.813635845537817
 10
18.85910854900854
 20
7.800135845537816
 10
18.80285854900853
 20
7.813635845537817
 10
18.77810854900853
 20
7.847385845537813
 10
18.77810854900853
 20
7.858635845537813
 10
18.93785854900854
 20
7.858635845537813
 10
18.94010854900853
 20
7.847385845537813
  0
LWPOLYLINE
  5
486
330
1E
100
AcDbEntity
  8
7
  6
Continuous
100
AcDbPolyline
 90
        4
 70
     0
 43
0.0
 10
18.81860854900853
 20
7.858635845537818
 10
18.81860854900853
 20
8.022885845537814
 10
18.89735854900854
 20
8.022885845537814
 10
18.89735854900854
 20
7.858635845537818
  0
LWPOLYLINE
  5
487
330
1E
100
AcDbEntity
  8
7
  6
Continuous
100
AcDbPolyline
 90
        7
 70
     0
 43
0.0
 10
18.91085854900854
 20
7.910385845537815
 10
18.98510854900854
 20
7.910385845537815
 10
19.03910854900853
 20
7.914885845537815
 10
19.07285854900854
 20
7.930635845537816
 10
19.09085854900853
 20
7.962135845537812
 10
19.09535854900854
 20
8.004885845537813
 10
19.09535854900854
 20
8.171385845537814
  0
LWPOLYLINE
  5
488
330
1E
100
AcDbEntity
  8
7
  6
Continuous
100
AcDbPolyline
 90
        2
 70
     0
 43
0.0
 10
19.48460854900853
 20
8.182635845537815
 10
19.52060854900853
 20
8.218635845537816
  0
LWPOLYLINE
  5
489
330
1E
100
AcDbEntity
  8
7
  6
Continuous
100
AcDbPolyline
 90
        2
 70
     0
 43
0.0
 10
18.96935854900853
 20
8.252385845537817
 10
19.24160854900853
 20
8.524635845537812
  0
LWPOLYLINE
  5
48A
330
1E
100
AcDbEntity
  8
7
  6
Continuous
100
AcDbPolyline
 90
        2
 70
     0
 43
0.0
 10
18.75451518085125
 20
8.176100488693656
 10
18.80702289059199
 20
8.230139784802174
  0
LINE
  5
48B
330
1E
100
AcDbEntity
  8
7
100
AcDbLine
 10
19.53200029463802
 20
8.236184137277897
 30
0.0
 11
19.55296969286085
 21
8.248624200402812
 31
0.0
  0
LINE
  5
48C
330
1E
100
AcDbEntity
  8
7
100
AcDbLine
 10
19.55296969286085
 20
8.248624200402812
 30
0.0
 11
19.52519761202242
 21
8.268788031460879
 31
0.0
  0
LINE
  5
48D
330
1E
100
AcDbEntity
  8
7
100
AcDbLine
 10
19.52519761202242
 20
8.268788031460879
 30
0.0
 11
19.55801930842462
 21
8.271308527137499
 31
0.0
  0
LINE
  5
48E
330
1E
100
AcDbEntity
  8
7
100
AcDbLine
 10
19.55801930842462
 20
8.271308527137499
 30
0.0
 11
19.58831619704493
 21
8.293992719517355
 31
0.0
  0
LINE
  5
48F
330
1E
100
AcDbEntity
  8
7
100
AcDbLine
 10
19.58831619704493
 20
8.293992719517355
 30
0.0
 11
19.61608827788336
 21
8.304074702223804
 31
0.0
  0
LINE
  5
490
330
1E
100
AcDbEntity
  8
7
100
AcDbLine
 10
19.61608827788336
 20
8.304074702223804
 30
0.0
 11
19.58579138926305
 21
8.331800020311668
 31
0.0
  0
LINE
  5
491
330
1E
100
AcDbEntity
  8
7
100
AcDbLine
 10
19.58579138926305
 20
8.331800020311668
 30
0.0
 11
19.5630686557343
 21
8.346922860016526
 31
0.0
  0
LINE
  5
492
330
1E
100
AcDbEntity
  8
7
100
AcDbLine
 10
19.5630686557343
 20
8.346922860016526
 30
0.0
 11
19.5958903521365
 21
8.364566195397973
 31
0.0
  0
LINE
  5
493
330
1E
100
AcDbEntity
  8
7
100
AcDbLine
 10
19.5958903521365
 20
8.364566195397973
 30
0.0
 11
19.61103866231959
 21
8.38473002645604
 31
0.0
  0
LINE
  5
494
330
1E
100
AcDbEntity
  8
7
100
AcDbLine
 10
19.61103866231959
 20
8.38473002645604
 30
0.0
 11
19.60346450722803
 21
8.402373361837486
 31
0.0
  0
LINE
  5
495
330
1E
100
AcDbEntity
  8
7
100
AcDbLine
 10
19.60346450722803
 20
8.402373361837486
 30
0.0
 11
19.58831619704493
 21
8.430098679925382
 31
0.0
  0
LINE
  5
496
330
1E
100
AcDbEntity
  8
7
100
AcDbLine
 10
19.58831619704493
 20
8.430098679925382
 30
0.0
 11
19.60851385453771
 21
8.445221519630209
 31
0.0
  0
LINE
  5
497
330
1E
100
AcDbEntity
  8
7
100
AcDbLine
 10
19.60851385453771
 20
8.445221519630209
 30
0.0
 11
19.62113762519304
 21
8.475467333394693
 31
0.0
  0
LINE
  5
498
330
1E
100
AcDbEntity
  8
7
100
AcDbLine
 10
19.62113762519304
 20
8.475467333394693
 30
0.0
 11
19.60851385453771
 21
8.49815166012938
 31
0.0
  0
LINE
  5
499
330
1E
100
AcDbEntity
  8
7
100
AcDbLine
 10
19.60851385453771
 20
8.49815166012938
 30
0.0
 11
19.60160854900853
 21
8.526885845537815
 31
0.0
  0
LINE
  5
49A
330
1E
100
AcDbEntity
  8
7
  6
Continuous
100
AcDbLine
 10
18.90185854900853
 20
8.178135845537813
 30
0.0
 11
19.55210854900853
 21
8.178135845537813
 31
0.0
  0
LINE
  5
49B
330
1E
100
AcDbEntity
  8
7
  6
Continuous
100
AcDbLine
 10
19.55210854900853
 20
8.178135845537813
 30
0.0
 11
19.52735854900853
 21
8.214135845537814
 31
0.0
  0
LINE
  5
49C
330
1E
100
AcDbEntity
  8
7
  6
Continuous
100
AcDbLine
 10
19.60160854900853
 20
8.526885845537815
 30
0.0
 11
18.99907948910241
 21
8.526885845537815
 31
0.0
  0
LINE
  5
49D
330
1E
100
AcDbEntity
  8
7
100
AcDbLine
 10
19.52735854900853
 20
8.214135845537814
 30
0.0
 11
19.53200029463802
 21
8.236184137277897
 31
0.0
  0
LINE
  5
49E
330
1E
100
AcDbEntity
  8
7
100
AcDbLine
 10
18.82444810327619
 20
8.022885845537816
 30
0.0
 11
18.83549534446553
 21
8.360385845537813
 31
0.0
  0
LINE
  5
49F
330
1E
100
AcDbEntity
  8
7
100
AcDbLine
 10
18.83549534446553
 20
8.360385845537813
 30
0.0
 11
18.85798354900854
 21
8.397745914497743
 31
0.0
  0
LINE
  5
4A0
330
1E
100
AcDbEntity
  8
7
100
AcDbLine
 10
18.89151899474087
 20
8.022885845537816
 30
0.0
 11
18.88047175355154
 21
8.360385845537813
 31
0.0
  0
LINE
  5
4A1
330
1E
100
AcDbEntity
  8
7
100
AcDbLine
 10
18.88047175355154
 20
8.360385845537813
 30
0.0
 11
18.85798354900853
 21
8.397745914497743
 31
0.0
  0
LINE
  5
4A2
330
1E
100
AcDbEntity
  8
7
100
AcDbLine
 10
18.88709199535943
 20
8.351346389055912
 30
0.0
 11
18.82858416197934
 21
8.342457972732011
 31
0.0
  0
LINE
  5
4A3
330
1E
100
AcDbEntity
  8
7
100
AcDbLine
 10
18.88888803495747
 20
8.296476276785416
 30
0.0
 11
18.82721004770059
 21
8.287106255762802
 31
0.0
  0
LINE
  5
4A4
330
1E
100
AcDbEntity
  8
7
100
AcDbLine
 10
18.8907320869203
 20
8.241613458476473
 30
0.0
 11
18.82495617973488
 21
8.23162088802273
 31
0.0
  0
LINE
  5
4A5
330
1E
100
AcDbEntity
  8
7
100
AcDbLine
 10
18.89248011415354
 20
8.18673605224443
 30
0.0
 11
18.82314218861266
 21
8.176202345668095
 31
0.0
  0
LINE
  5
4A6
330
1E
100
AcDbEntity
  8
7
100
AcDbLine
 10
18.89427615375158
 20
8.131865939973929
 30
0.0
 11
18.82132819749042
 21
8.120783803313459
 31
0.0
  0
LINE
  5
4A7
330
1E
100
AcDbEntity
  8
7
100
AcDbLine
 10
18.89607219334962
 20
8.07699582770344
 30
0.0
 11
18.81951420636819
 21
8.065365260958813
 31
0.0
  0
LINE
  5
4A8
330
1E
100
AcDbEntity
  8
7
100
AcDbLine
 10
18.80735854900853
 20
7.910385845537813
 30
0.0
 11
18.80735854900853
 21
7.865385845537815
 31
0.0
  0
LINE
  5
4A9
330
1E
100
AcDbEntity
  8
7
100
AcDbLine
 10
18.91085854900853
 20
7.910385845537813
 30
0.0
 11
18.91085854900853
 21
7.865385845537815
 31
0.0
  0
LWPOLYLINE
  5
4AA
330
1E
100
AcDbEntity
  8
7
  6
Continuous
100
AcDbPolyline
 90
        7
 70
     0
 43
0.0
 10
19.14035854900854
 20
8.171385845537814
 10
19.14035854900854
 20
7.977885845537812
 10
19.13135854900853
 20
7.926135845537812
 10
19.10660854900853
 20
7.890135845537814
 10
19.07060854900853
 20
7.872135845537814
 10
19.02335854900853
 20
7.865385845537813
 10
18.91085854900854
 20
7.865385845537813
  0
LWPOLYLINE
  5
4AB
330
1E
100
AcDbEntity
  8
7
  6
Continuous
100
AcDbPolyline
 90
        4
 70
     0
 43
0.0
 10
18.80735854900853
 20
7.865385845537813
 10
18.46085854900853
 20
7.865385845537813
 10
18.46085854900853
 20
7.910385845537815
 10
18.80735854900853
 20
7.910385845537815
  0
LINE
  5
4AC
330
1E
100
AcDbEntity
  8
7
  6
Continuous
100
AcDbLine
 10
12.14055774715644
 20
7.858635845537815
 30
0.0
 11
12.14055774715643
 21
8.360385845537813
 31
0.0
  0
LINE
  5
4AD
330
1E
100
AcDbEntity
  8
7
  6
Continuous
100
AcDbLine
 10
12.14055774715643
 20
8.360385845537813
 30
0.0
 11
12.06180774715643
 21
8.360385845537813
 31
0.0
  0
LINE
  5
4AE
330
1E
100
AcDbEntity
  8
7
  6
Continuous
100
AcDbLine
 10
12.06180774715643
 20
8.360385845537813
 30
0.0
 11
12.06180774715643
 21
7.858635845537815
 31
0.0
  0
LINE
  5
4AF
330
1E
100
AcDbEntity
  8
7
100
AcDbLine
 10
12.05055774715644
 20
7.910385845537813
 30
0.0
 11
12.05055774715644
 21
7.865385845537815
 31
0.0
  0
LINE
  5
4B0
330
1E
100
AcDbEntity
  8
7
100
AcDbLine
 10
12.15405774715643
 20
7.910385845537813
 30
0.0
 11
12.15405774715643
 21
7.865385845537815
 31
0.0
  0
LWPOLYLINE
  5
4B1
330
1E
100
AcDbEntity
  8
7
  6
Continuous
100
AcDbPolyline
 90
        7
 70
     0
 43
0.0
 10
12.38355774715644
 20
8.171385845537812
 10
12.38355774715644
 20
7.97788584553781
 10
12.37455774715644
 20
7.926135845537814
 10
12.34980774715643
 20
7.890135845537812
 10
12.31380774715643
 20
7.872135845537815
 10
12.26655774715644
 20
7.865385845537815
 10
12.15405774715643
 20
7.865385845537815
  0
LWPOLYLINE
  5
4B2
330
1E
100
AcDbEntity
  8
7
  6
Continuous
100
AcDbPolyline
 90
        4
 70
     0
 43
0.0
 10
12.05055774715644
 20
7.865385845537815
 10
11.70405774715644
 20
7.865385845537815
 10
11.70405774715644
 20
7.910385845537813
 10
12.05055774715644
 20
7.910385845537813
  0
LINE
  5
4B3
330
1E
100
AcDbEntity
  8
7
100
AcDbLine
 10
18.70008784798042
 20
8.526885845537812
 30
0.0
 11
18.99907948910241
 21
8.526885845537815
 31
0.0
  0
LWPOLYLINE
  5
4B4
330
1E
100
AcDbEntity
  8
7
  6
Continuous
100
AcDbPolyline
 90
        2
 70
     0
 43
0.0
 10
11.70180774715643
 20
8.182635845537813
 10
11.93383685866679
 20
8.414664957048179
  0
LWPOLYLINE
  5
4B5
330
1E
100
AcDbEntity
  8
7
  6
Continuous
100
AcDbPolyline
 90
        2
 70
     0
 43
0.0
 10
12.07980774715643
 20
8.091629935855417
 10
12.12480774715644
 20
8.091629935855417
  0
LWPOLYLINE
  5
4B6
330
1E
100
AcDbEntity
  8
7
  6
Continuous
100
AcDbPolyline
 90
        2
 70
     0
 43
0.0
 10
12.06405774715644
 20
8.037418220459427
 10
12.14055774715643
 20
8.037418220459427
  0
LWPOLYLINE
  5
4B7
330
1E
100
AcDbEntity
  8
7
  6
Continuous
100
AcDbPolyline
 90
        2
 70
     0
 43
0.0
 10
12.07980774715643
 20
8.199629935855419
 10
12.12480774715644
 20
8.199629935855419
  0
LWPOLYLINE
  5
4B8
330
1E
100
AcDbEntity
  8
7
  6
Continuous
100
AcDbPolyline
 90
        2
 70
     0
 43
0.0
 10
12.06405774715644
 20
8.145418220459426
 10
12.14055774715643
 20
8.145418220459426
  0
LWPOLYLINE
  5
4B9
330
1E
100
AcDbEntity
  8
7
  6
Continuous
100
AcDbPolyline
 90
        2
 70
     0
 43
0.0
 10
12.07980774715643
 20
8.30762993585542
 10
12.12480774715644
 20
8.30762993585542
  0
LWPOLYLINE
  5
4BA
330
1E
100
AcDbEntity
  8
7
  6
Continuous
100
AcDbPolyline
 90
        2
 70
     0
 43
0.0
 10
12.06405774715644
 20
8.253418220459424
 10
12.14055774715643
 20
8.253418220459424
  0
HATCH
  5
4BB
330
1E
100
AcDbEntity
  8
7
  6
Continuous
100
AcDbHatch
 10
0.0
 20
0.0
 30
0.0
210
0.0
220
0.0
230
1.0
  2
ANSI31
 70
     0
 71
     0
 91
        1
 92
        7
 72
     0
 73
     1
 93
        4
 10
12.05280774715643
 20
8.405385845537816
 10
12.00330774715644
 20
8.405385845537816
 10
12.00330774715643
 20
8.182635845537813
 10
12.05280774715643
 20
8.182635845537813
 97
        0
 75
     0
 76
     1
 52
1152.446174843772
 41
0.5940000000000002
 77
     0
 78
     1
 53
117.4461748437723
 43
-6.511792193003834
 44
-1.767421755041958
 45
-0.0658927333687727
 46
-0.0342229482831598
 79
     0
 47
0.0001324575403667
 98
        1
 10
12.03296277141287
 20
8.221503570929176
  0
TEXT
  5
4BC
330
1E
100
AcDbEntity
  8
CEN
100
AcDbText
 10
52.2680470749446
 20
23.17391151306276
 30
0.0
 40
0.125
  1

  7
ROMANT
100
AcDbText
  0
TEXT
  5
4BD
330
1E
100
AcDbEntity
  8
DIM
100
AcDbText
 10
58.59307416326368
 20
6.15162098519805
 30
0.0
 40
0.2
  1
                  
  7
ROMANT
100
AcDbText
  0
LWPOLYLINE
  5
4BE
330
1E
100
AcDbEntity
  8
7
  6
Continuous
100
AcDbPolyline
 90
        2
 70
     0
 43
0.0
 10
11.55555774715643
 20
8.182635845537813
 10
11.89980774715643
 20
8.526885845537812
  0
LINE
  5
4BF
330
1E
100
AcDbEntity
  8
7
100
AcDbLine
 10
11.96505233656228
 20
8.526885845537815
 30
0.0
 11
11.94328704612832
 21
8.52688584553781
 31
0.0
  0
LWPOLYLINE
  5
4C0
330
1E
100
AcDbEntity
  8
7
  6
Continuous
100
AcDbPolyline
 90
        2
 70
     0
 43
0.0
 10
18.45860854900853
 20
8.182635845537815
 10
18.66192198204266
 20
8.385949278571947
  0
LWPOLYLINE
  5
4C1
330
1E
100
AcDbEntity
  8
7
  6
Continuous
100
AcDbPolyline
 90
        2
 70
     0
 43
0.0
 10
18.31235854900853
 20
8.182635845537815
 10
18.65660854900854
 20
8.526885845537817
  0
LWPOLYLINE
  5
4C2
330
1E
100
AcDbEntity
  8
7
  6
Continuous
100
AcDbPolyline
 90
        2
 70
     0
 43
0.0
 10
18.83660854900853
 20
8.412135845537816
 10
18.9491518182393
 20
8.526885845537814
  0
LINE
  5
4C3
330
1E
100
AcDbEntity
  8
7
100
AcDbLine
 10
18.77509165601179
 20
8.498535303347004
 30
0.0
 11
18.80358916822961
 21
8.526885845537815
 31
0.0
  0
MTEXT
  5
4C4
330
1E
100
AcDbEntity
  8
0
 62
     6
100
AcDbMText
 10
15.52121963449131
 20
15.50348666912646
 30
0.0
 40
0.11
 41
7.879999999999999
 71
     2
 72
     5
  1
CUT-OUT TEMPLATE FOR UNDERCOUNTER BASIN\PPLANTILLA DE RECORTE PARA LAVAMANOS MONTADO BAJO CUBIERTA\PGABARIT POUR LAVABO SOUS-COMPTOIR\P{\H1.212x; }
  7
STD
 73
     1
 44
1.0
1001
ACAD
1000
MTEXTBEGIN
1070
    73
1070
     1
1070
    44
1040
1.0
1070
    74
1070
     0
1000
MTEXTEND
  0
MTEXT
  5
4C5
330
1E
100
AcDbEntity
  8
0
 62
     6
100
AcDbMText
 10
9.806052260571952
 20
14.7730671123268
 30
0.0
 40
0.08
 41
3.35
 71
     1
 72
     5
  3
INSTALLATION INSTRUCTIONS:\P1. Cut inner portion from template.\P\P2. Place outer portion in exact position to be installed.\PMake sure there are no struts, drawers, etc. under the countertop to interfere with the installation of the basin, piping, d
  3
rain or water supplies.\P{\H0.5x; \P}3. Trace the outline of the inside of template on countertop and locations of thread inserts, (underside).\P\P4. Cut out opening on line, install inserts per instructions.\P\P5. Install fittings and drain assembly
  3
, per instructions supplied by manufacturer.\P\P6. Apply a sealing compound to basin rim and install with clips provided.\P\P7. Carefully wipe excess compound from countertop and basin rim with damp cloth or sponge.\P\P8. Connect water supplies and c
  1
heck for leaks.
  7
STD
 73
     1
 44
1.0
1001
ACAD
1000
MTEXTBEGIN
1070
    73
1070
     1
1070
    44
1040
1.0
1070
    74
1070
     0
1000
MTEXTEND
  0
MTEXT
  5
4C6
330
1E
100
AcDbEntity
  8
0
 62
     6
100
AcDbMText
 10
11.75801511240387
 20
10.43496890103189
 30
0.0
 40
0.12
 41
3.536016865517064
 71
     2
 72
     5
  1
FOR SOLID SURFACE MATERIAL\PPARA UNA SUPERFICIE SOLIDA\PPOUR DE SURFACE SOLIDE
  7
STD
 73
     1
 44
1.0
1001
ACAD
1000
MTEXTBEGIN
1070
    73
1070
     1
1070
    44
1040
1.0
1070
    74
1070
     0
1000
MTEXTEND
  0
MTEXT
  5
4C7
330
1E
100
AcDbEntity
  8
0
 62
     6
100
AcDbMText
 10
11.75801511240387
 20
9.679137677725023
 30
0.0
 40
0.1
 41
3.360787929940353
 71
     2
 72
     5
  1
DETAIL OF MOUNTING CLIP\PDETALLE DE MONTAJE DEL SUJETADOR\PDÉTAILS DES ATTACHES DE MONTAGE
  7
STD
 73
     1
 44
1.0
1001
ACAD
1000
MTEXTBEGIN
1070
    73
1070
     1
1070
    44
1040
1.0
1070
    74
1070
     0
1000
MTEXTEND
  0
MTEXT
  5
4C8
330
1E
100
AcDbEntity
  8
0
 62
     6
100
AcDbMText
 10
9.464385201520919
 20
8.918001921642996
 30
0.0
 40
0.08
 41
1.591636921505688
 71
     1
 72
     5
  1
BRASS INSERT\PREFUERZO DE BRONZE\PINSERTION EN LAITON
  7
STD
 73
     1
 44
1.0
1001
ACAD
1000
MTEXTBEGIN
1070
    73
1070
     1
1070
    44
1040
1.0
1070
    74
1070
     0
1000
MTEXTEND
  0
MTEXT
  5
4C9
330
1E
100
AcDbEntity
  8
0
 62
     6
100
AcDbMText
 10
10.04869274134793
 20
7.714776285677515
 30
0.0
 40
0.08
 41
0.819223506965236
 71
     1
 72
     5
  1
BASIN\PLAVAMANOS\PLAVABO
  7
STD
 73
     1
 44
1.0
1001
ACAD
1000
MTEXTBEGIN
1070
    73
1070
     1
1070
    44
1040
1.0
1070
    74
1070
     0
1000
MTEXTEND
  0
MTEXT
  5
4CA
330
1E
100
AcDbEntity
  8
0
 62
     6
100
AcDbMText
 10
13.41969167945803
 20
8.459824392197234
 30
0.0
 40
0.08
 41
0.7900000000000001
 71
     2
 72
     5
  1
25mm\P(1") MIN.
  7
STD
 73
     1
 44
1.0
1001
ACAD
1000
MTEXTBEGIN
1070
    73
1070
     1
1070
    44
1040
1.0
1070
    74
1070
     0
1000
MTEXTEND
  0
MTEXT
  5
4CB
330
1E
100
AcDbEntity
  8
0
 62
     6
100
AcDbMText
 10
13.11581822359283
 20
7.764171435505524
 30
0.0
 40
0.08
 41
0.8715215883769138
 71
     1
 72
     5
  1
CLIP\PSUJETADOR\PATTACHE
  7
STD
 73
     1
 44
1.0
1001
ACAD
1000
MTEXTBEGIN
1070
    73
1070
     1
1070
    44
1040
1.0
1070
    74
1070
     0
1000
MTEXTEND
  0
MTEXT
  5
4CC
330
1E
100
AcDbEntity
  8
0
 62
     6
100
AcDbMText
 10
12.37795173401625
 20
7.203158425748299
 30
0.0
 40
0.08
 41
1.468308652126657
 71
     1
 72
     5
  1
MACHINE SCREW\PTORNILLO MECANICO\PVIS À MÉTAUX
  7
STD
 73
     1
 44
1.0
1001
ACAD
1000
MTEXTBEGIN
1070
    73
1070
     1
1070
    44
1040
1.0
1070
    74
1070
     0
1000
MTEXTEND
  0
MTEXT
  5
4CD
330
1E
100
AcDbEntity
  8
0
 62
     6
100
AcDbMText
 10
18.82429878327677
 20
10.40363473371532
 30
0.0
 40
0.12
 41
1.74
 71
     2
 72
     5
  1
FOR WOOD\PPARA MADERA\PPOUR BOIS
  7
STD
 73
     1
 44
1.0
1001
ACAD
1000
MTEXTBEGIN
1070
    73
1070
     1
1070
    44
1040
1.0
1070
    74
1070
     0
1000
MTEXTEND
  0
MTEXT
  5
4CE
330
1E
100
AcDbEntity
  8
0
 62
     6
100
AcDbMText
 10
18.80576226494663
 20
9.663470565334925
 30
0.0
 40
0.1
 41
3.360787929940353
 71
     2
 72
     5
  1
DETAIL OF MOUNTING CLIP\PDETALLE DE MONTAJE DEL SUJETADOR\PDÉTAILS DES ATTACHES DE MONTAGE
  7
STD
 73
     1
 44
1.0
1001
ACAD
1000
MTEXTBEGIN
1070
    73
1070
     1
1070
    44
1040
1.0
1070
    74
1070
     0
1000
MTEXTEND
  0
MTEXT
  5
4CF
330
1E
100
AcDbEntity
  8
0
 62
     6
100
AcDbMText
 10
16.37668168871858
 20
8.933078187052714
 30
0.0
 40
0.08
 41
1.660881106392912
 71
     1
 72
     5
  1
WOOD SCREW\PTORNILLO PARA MADERA\PVIS À BOIS
  7
STD
 73
     1
 44
1.0
1001
ACAD
1000
MTEXTBEGIN
1070
    73
1070
     1
1070
    44
1040
1.0
1070
    74
1070
     0
1000
MTEXTEND
  0
MTEXT
  5
4D0
330
1E
100
AcDbEntity
  8
0
 62
     6
100
AcDbMText
 10
19.76068222131753
 20
7.838453954644087
 30
0.0
 40
0.08
 41
1.004416746727307
 71
     1
 72
     5
  1
CLIP\PSUJETADOR\PATTACHE
  7
STD
 73
     1
 44
1.0
1001
ACAD
1000
MTEXTBEGIN
1070
    73
1070
     1
1070
    44
1040
1.0
1070
    74
1070
     0
1000
MTEXTEND
  0
MTEXT
  5
4D1
330
1E
100
AcDbEntity
  8
0
 62
     6
100
AcDbMText
 10
16.64405931046496
 20
7.720498668420091
 30
0.0
 40
0.08
 41
0.8762121510586586
 71
     1
 72
     5
  1
BASIN\PLAVAMANOS\PLAVABO
  7
STD
 73
     1
 44
1.0
1001
ACAD
1000
MTEXTBEGIN
1070
    73
1070
     1
1070
    44
1040
1.0
1070
    74
1070
     0
1000
MTEXTEND
  0
LWPOLYLINE
  5
4D2
330
1E
100
AcDbEntity
  8
7
  6
Continuous
100
AcDbPolyline
 90
        2
 70
     0
 43
0.0
 10
18.92293022795008
 20
8.349427998962916
 10
19.09535854900854
 20
8.526885845537817
  0
LEADER
  5
4D3
330
1E
100
AcDbEntity
  8
DIM
100
AcDbLeader
  3
Standard
 76
     2
 10
18.84422868530343
 20
8.377791314515214
 30
0.0
 10
18.17137674554143
 20
8.725147580249505
 30
0.0
1001
ACAD
1000
DSTYLE
1002
{
1070
   147
1040
0.09
1070
    77
1070
     0
1070
    41
1040
0.125
1070
    42
1040
0.125
1070
    44
1040
0.125
1070
   140
1040
0.125
1070
   141
1040
0.125
1070
   174
1070
     1
1002
}
  0
LWPOLYLINE
  5
4D4
330
1E
100
AcDbEntity
  8
DIM
100
AcDbPolyline
 90
        2
 70
     0
 43
0.0
 10
18.17137674554143
 20
8.725147580249505
 10
18.00364386446359
 20
8.725147580249505
  0
LEADER
  5
4D5
330
1E
100
AcDbEntity
  8
DIM
100
AcDbLeader
  3
Standard
 76
     2
 10
18.1032488823043
 20
7.596309735608757
 30
0.0
 10
17.50973899383597
 20
7.596309735608757
 30
0.0
1001
ACAD
1000
DSTYLE
1002
{
1070
   147
1040
0.09
1070
    77
1070
     0
1070
    41
1040
0.125
1070
    42
1040
0.125
1070
    44
1040
0.125
1070
   140
1040
0.125
1070
   141
1040
0.125
1070
   174
1070
     1
1002
}
  0
LEADER
  5
4D6
330
1E
100
AcDbEntity
  8
DIM
100
AcDbLeader
  3
Standard
 76
     3
 10
19.13135854900853
 20
7.926135845537812
 30
0.0
 10
19.57315175288252
 20
7.699886193928293
 30
0.0
 10
19.71029592057912
 20
7.699867600073076
 30
0.0
1001
ACAD
1000
DSTYLE
1002
{
1070
   147
1040
0.09
1070
    77
1070
     0
1070
    41
1040
0.125
1070
    42
1040
0.125
1070
    44
1040
0.125
1070
   140
1040
0.125
1070
   141
1040
0.125
1070
   174
1070
     1
1002
}
  0
LEADER
  5
4D7
330
1E
100
AcDbEntity
  8
DIM
100
AcDbLeader
  3
Standard
 76
     3
 10
12.00002525547429
 20
8.380445164760175
 30
0.0
 10
11.1262481955843
 20
8.753549258704012
 30
0.0
 10
10.97688465490889
 20
8.753549258704012
 30
0.0
1001
ACAD
1000
DSTYLE
1002
{
1070
   147
1040
0.09
1070
    77
1070
     0
1070
    41
1040
0.125
1070
    42
1040
0.125
1070
    44
1040
0.125
1070
   140
1040
0.125
1070
   141
1040
0.125
1070
   174
1070
     1
1002
}
  0
LEADER
  5
4D8
330
1E
100
AcDbEntity
  8
DIM
100
AcDbLeader
  3
Standard
 76
     2
 10
11.34282541395418
 20
7.544692043499821
 30
0.0
 10
10.84245739328722
 20
7.544692043499821
 30
0.0
1001
ACAD
1000
DSTYLE
1002
{
1070
   147
1040
0.09
1070
    77
1070
     0
1070
    41
1040
0.125
1070
    42
1040
0.125
1070
    44
1040
0.125
1070
   140
1040
0.125
1070
   141
1040
0.125
1070
   174
1070
     1
1002
}
  0
LEADER
  5
4D9
330
1E
100
AcDbEntity
  8
DIM
100
AcDbLeader
  3
Standard
 76
     3
 10
12.35849782810908
 20
7.895409904100482
 30
0.0
 10
12.91861134006
 20
7.619312872533136
 30
0.0
 10
13.03810222886069
 20
7.619312872533136
 30
0.0
1001
ACAD
1000
DSTYLE
1002
{
1070
   147
1040
0.09
1070
    77
1070
     0
1070
    41
1040
0.125
1070
    42
1040
0.125
1070
    44
1040
0.125
1070
   140
1040
0.125
1070
   141
1040
0.125
1070
   174
1070
     1
1002
}
  0
LEADER
  5
4DA
330
1E
100
AcDbEntity
  8
DIM
100
AcDbLeader
  3
Standard
 76
     3
 10
12.10457977145399
 20
7.798402841723991
 30
0.0
 10
12.20917512122187
 20
7.051833565809864
 30
0.0
 10
12.32378361737328
 20
7.051833565809864
 30
0.0
1001
ACAD
1000
DSTYLE
1002
{
1070
   147
1040
0.09
1070
    77
1070
     0
1070
    41
1040
0.125
1070
    42
1040
0.125
1070
    44
1040
0.125
1070
   140
1040
0.125
1070
   141
1040
0.125
1070
   174
1070
     1
1002
}
  0
LINE
  5
4DB
102
{ACAD_REACTORS
330
5C3
102
}
330
1E
100
AcDbEntity
  8
DIM
100
AcDbLine
 10
12.88768348263477
 20
8.526885845537815
 30
0.0
 11
13.32560945950977
 21
8.526885845537815
 31
0.0
  0
LINE
  5
4DC
102
{ACAD_REACTORS
330
5C3
102
}
330
1E
100
AcDbEntity
  8
DIM
100
AcDbLine
 10
12.83818348263479
 20
8.178135845537813
 30
0.0
 11
13.32560945950977
 21
8.178135845537813
 31
0.0
  0
LINE
  5
4DD
102
{ACAD_REACTORS
330
5C3
102
}
330
1E
100
AcDbEntity
  8
DIM
100
AcDbLine
 10
13.20060945950977
 20
8.651885845537815
 30
0.0
 11
13.20060945950977
 21
8.776885845537815
 31
0.0
  0
LINE
  5
4DE
102
{ACAD_REACTORS
330
5C3
102
}
330
1E
100
AcDbEntity
  8
DIM
100
AcDbLine
 10
13.20060945950977
 20
8.053135845537813
 30
0.0
 11
13.20060945950977
 21
7.928135845537813
 31
0.0
  0
SOLID
  5
4DF
102
{ACAD_REACTORS
330
5C3
102
}
330
1E
100
AcDbEntity
  8
DIM
100
AcDbTrace
 10
13.17977612617643
 20
8.651885845537815
 30
0.0
 11
13.2214427928431
 21
8.651885845537815
 31
0.0
 12
13.20060945950977
 22
8.526885845537815
 32
0.0
 13
13.20060945950977
 23
8.526885845537815
 33
0.0
  0
SOLID
  5
4E0
102
{ACAD_REACTORS
330
5C3
102
}
330
1E
100
AcDbEntity
  8
DIM
100
AcDbTrace
 10
13.17977612617643
 20
8.053135845537813
 30
0.0
 11
13.2214427928431
 21
8.053135845537813
 31
0.0
 12
13.20060945950977
 22
8.178135845537813
 32
0.0
 13
13.20060945950977
 23
8.178135845537813
 33
0.0
  0
MTEXT
  5
4E1
330
1E
100
AcDbEntity
  8
0
 62
     6
100
AcDbMText
 10
26.89257965827311
 20
13.96469332054737
 30
0.0
 40
0.12
 41
4.687447970629114
 71
     1
 72
     5
  1
Suggested countertop cut-out \PCorte sugerido en la cubierta\POuverture de la coiffeuse suggérée\P{\H0.8x; }
  7
STD
 73
     1
 44
1.0
1001
ACAD
1000
MTEXTBEGIN
1070
    73
1070
     1
1070
    44
1040
1.0
1070
    74
1070
     0
1000
MTEXTEND
  0
MTEXT
  5
4E2
330
1E
100
AcDbEntity
  8
0
 62
     6
100
AcDbMText
 10
18.5200300807051
 20
21.99654109717871
 30
0.0
 40
0.12
 41
4.049999999999999
 71
     1
 72
     5
  1
Finished wall / Back splash\PPared acabada / Pared posterior\PMur fini / Dosseret
  7
STD
 73
     1
 44
1.0
1001
ACAD
1000
MTEXTBEGIN
1070
    73
1070
     1
1070
    44
1040
1.0
1070
    74
1070
     0
1000
MTEXTEND
  0
LEADER
  5
4E3
330
1E
100
AcDbEntity
  8
DIM
100
AcDbLeader
  3
Standard
 76
     3
 10
17.16399298235472
 20
22.32804723895992
 30
0.0
 10
18.06623018426224
 20
21.78697737229791
 30
0.0
 10
18.33690135421121
 20
21.78697737229791
 30
0.0
1001
ACAD
1000
DSTYLE
1002
{
1070
   147
1040
0.09
1070
    77
1070
     0
1070
    41
1040
0.125
1070
    42
1040
0.125
1070
    44
1040
0.125
1070
   140
1040
0.125
1070
   141
1040
0.125
1070
   174
1070
     1
1002
}
  0
MTEXT
  5
4E4
330
1E
100
AcDbEntity
  8
0
 62
     6
100
AcDbMText
 10
24.60447926496004
 20
18.08872857459684
 30
0.0
 40
0.12
 41
4.049999999999999
 71
     1
 72
     5
  1
Clip locations\PUbicación de los sujetadores\PEmplacement des agrafes
  7
STD
 73
     1
 44
1.0
1001
ACAD
1000
MTEXTBEGIN
1070
    73
1070
     1
1070
    44
1040
1.0
1070
    74
1070
     0
1000
MTEXTEND
  0
MTEXT
  5
4E5
330
1E
100
AcDbEntity
  8
DIM
100
AcDbMText
 10
55.38787108746295
 20
21.78787753596041
 30
0.0
 40
0.125
 41
0.0
 71
     1
 72
     1
  1

 73
     1
 44
1.0
1001
ACAD
1000
MTEXTBEGIN
1070
    73
1070
     1
1070
    44
1040
1.0
1070
    74
1070
     0
1000
MTEXTEND
  0
MTEXT
  5
4E6
330
1E
100
AcDbEntity
  8
0
 62
     6
100
AcDbMText
 10
13.73506574607757
 20
14.7882166733813
 30
0.0
 40
0.08
 41
3.859999999999999
 71
     1
 72
     5
  3
INSTRUCCIONES DE INSTALACIÓN:\P1. Corte la porción interna de la plantilla.\P\P2. Coloque la porción externa de la plantilla en la posición exacta que se instalará.\PVerifique por debajo de la cubierta que no haya puntas, cajones etc. que impidan la 
  3
instalación del lavamanos, la tubería de agua o el desagüe.\P\P3. Calque el contorno del interior de la plantilla sobre la cubierta y la ubicación de los sujetadores de rosca, (debajo de la cubierta).\P\P4. Corte el agujero por la línea indicada, ins
  3
tale los sujetadores suministrados siguiendo las instrucciones.\P\P5. Instale los grifos y el desagüe siguiendo las instrucciones del fabricante.\P\P6. Aplique un compuesto sellador al borde del lavamanos e instálelo con los sujetadores suministrados
  1
.\P\P7. Limpie cuidadosamente el exceso de masilla de la cubierta y el lavamanos con un trapo o esponja húmeda.\P\P8. Conecte los abastecimientos y compruebe que no haya fugas de agua.
  7
STD
 73
     1
 44
1.0
1001
ACAD
1000
MTEXTBEGIN
1070
    73
1070
     1
1070
    44
1040
1.0
1070
    74
1070
     0
1000
MTEXTEND
  0
MTEXT
  5
4E7
330
1E
100
AcDbEntity
  8
0
 62
     6
100
AcDbMText
 10
26.1272467083977
 20
6.191391310410352
 30
0.0
 40
0.12
 41
4.049999999999999
 71
     1
 72
     5
  1
NOTA:\PAmerican Standard no asume ninguna responsabilidad en la satisfacción del cliente que use está plantilla de tamaño natural dadas las variaciones del producto.
  7
STD
 73
     1
 44
1.0
1001
ACAD
1000
MTEXTBEGIN
1070
    73
1070
     1
1070
    44
1040
1.0
1070
    74
1070
     0
1000
MTEXTEND
  0
MTEXT
  5
4E8
330
1E
100
AcDbEntity
  8
0
 62
     6
100
AcDbMText
 10
26.1272467083977
 20
7.590376479488661
 30
0.0
 40
0.12
 41
4.049999999999999
 71
     1
 72
     5
  1
NOTE:\PAmerican Standard takes no responsibility in customer satisfaction with use of this full size lavatory template due to variations in ware.
  7
STD
 73
     1
 44
1.0
1001
ACAD
1000
MTEXTBEGIN
1070
    73
1070
     1
1070
    44
1040
1.0
1070
    74
1070
     0
1000
MTEXTEND
  0
MTEXT
  5
4E9
330
1E
100
AcDbEntity
  8
0
 62
     6
100
AcDbMText
 10
26.1272467083977
 20
4.537506833339154
 30
0.0
 40
0.12
 41
4.049999999999999
 71
     1
 72
     5
  1
REMARQUE:\PAmerican Standard ne peut être tenue responsable de la satisfaction du client qui utilise ce gabarit pleine grandeur, à cause des variantes du produit.
  7
STD
 73
     1
 44
1.0
1001
ACAD
1000
MTEXTBEGIN
1070
    73
1070
     1
1070
    44
1040
1.0
1070
    74
1070
     0
1000
MTEXTEND
  0
MTEXT
  5
4EA
330
1E
100
AcDbEntity
  8
0
 62
     6
100
AcDbMText
 10
1.118730126115366
 20
9.143844618253083
 30
0.0
 40
0.08
 41
4.049999999999999
 71
     1
 72
     5
  3
{\LNOTE:\P}Used only on countertops with a minimum thickness of 1" (25mm).\PInstaller must supply anchors for thinner countertops.\P{\LANCHORS LOCATION\P}For solid surfaces':\P- Drill 3/8 Dia. x ½" Deep hole.\P- Insert Brass Insert (threaded end expo
  1
sed); epoxy in place (epoxy not supplied)\PFor wood surface - Anchors not supplied
  7
STD
 73
     1
 44
1.0
1001
ACAD
1000
MTEXTBEGIN
1070
    73
1070
     1
1070
    44
1040
1.0
1070
    74
1070
     0
1000
MTEXTEND
  0
TEXT
  5
4EB
330
1E
100
AcDbEntity
  8
DIM
100
AcDbText
 10
12.76121963449131
 20
15.66820345537069
 30
0.0
 40
0.18
  1
OVALYN UNIVERSAL ACCESS 9482.000
  7
ROMANT
 72
     4
 11
15.52121963449131
 21
15.75820345537069
 31
0.0
100
AcDbText
  0
INSERT
  5
4EC
330
1E
100
AcDbEntity
  8
DIM
100
AcDbBlockReference
  2
ASLOGO
 10
13.78335741608076
 20
16.07839722540684
 30
0.0
 41
0.5737499999999969
 42
0.57375
 43
0.57375
  0
MTEXT
  5
4ED
330
1E
100
AcDbEntity
  8
0
 62
     6
100
AcDbMText
 10
8.094903602006951
 20
21.8123523068327
 30
0.0
 40
0.12
 41
5.919999999999999
 71
     1
 72
     5
  1
{\LNOTE:} Before cutting countertop allow \P     for handle clearance\P{\LNOTA:} Antes de cortar la cubierta, deje\P     espacio libre para operar\P"{\LREMARQUE:} Avant de couper l'ouverture,\P          prévoir le dégagement pour les poignées"
  7
STD
 73
     1
 44
1.0
1001
ACAD
1000
MTEXTBEGIN
1070
    73
1070
     1
1070
    44
1040
1.0
1070
    74
1070
     0
1000
MTEXTEND
  0
LEADER
  5
4EE
330
1E
100
AcDbEntity
  8
DIM
100
AcDbLeader
  3
Standard
 76
     2
 10
23.24747528815267
 20
11.99107795971527
 30
0.0
 10
26.36009683625469
 20
13.74365379321943
 30
0.0
  0
LEADER
  5
4EF
330
1E
100
AcDbEntity
  8
DIM
100
AcDbLeader
  3
Standard
 76
     2
 10
23.49324443371472
 20
15.57470110837968
 30
0.0
 10
25.84627381150929
 20
16.80327574266054
 30
0.0
  0
MTEXT
  5
4F1
330
1E
100
AcDbEntity
  8
DIM
100
AcDbMText
 10
55.1808531226837
 20
21.97397283377322
 30
0.0
 40
0.25
 41
0.0
 71
     1
 72
     1
  1

 73
     1
 44
1.0
1001
ACAD
1000
MTEXTBEGIN
1070
    73
1070
     1
1070
    44
1040
1.0
1070
    74
1070
     0
1000
MTEXTEND
  0
LEADER
  5
4F2
330
1E
100
AcDbEntity
  8
DIM
100
AcDbLeader
  3
Standard
 73
     0
 75
     1
 40
0.25
 76
     3
 10
7.078079748704666
 20
5.778120926099763
 30
0.0
 10
5.564194808318049
 20
6.521668777692864
 30
0.0
 10
5.384194808318049
 20
6.521668777692864
 30
0.0
213
-0.5284292702410529
223
0.1758457727995529
233
0.0
  0
MTEXT
  5
4F3
102
{ACAD_REACTORS
330
4F2
102
}
330
1E
100
AcDbEntity
  8
DIM
100
AcDbMText
 10
39.33406319000056
 20
8.189615439466692
 30
0.0
 40
0.25
 41
0.133
 71
     9
 72
     1
  1

 73
     1
 44
1.0
1001
ACAD
1000
MTEXTBEGIN
1070
    73
1070
     1
1070
    44
1040
1.0
1070
    74
1070
     0
1000
MTEXTEND
  0
LWPOLYLINE
  5
4F4
330
1E
100
AcDbEntity
  8
DIM
  6
Continuous
100
AcDbPolyline
 90
        2
 70
     0
 43
0.0
 10
26.36009683625469
 20
13.74365379321943
 10
26.76153614832978
 20
13.74365379321943
  0
MTEXT
  5
4F5
330
1E
100
AcDbEntity
  8
0
 62
     6
100
AcDbMText
 10
18.12946132306006
 20
14.7882166733813
 30
0.0
 40
0.08
 41
3.35
 71
     1
 72
     5
  3
DIRECTIVES D'INSTALLATION:\P{\H0.875x;1. Couper la portion intérieure du gabarit.\P\P2. Placer la portion extérieure à l'endroit précis où l'installation doit avoir lieu.\PS'assurer qu'il n'y a aucune entretoise, aucun tiroir, etc. sous le comptoir p
  3
ouvant entraver l'installation de l'évier, de la tuyauterie, du renvoi ou le raccord à l'approvisionnement en eau.\P\H0.5714x; \P\H1.75x;3. Tracer le pourtour de l'intérieur du gabarit sur le comptoir et l'emplacement où les inserts filetés doivent s
  3
e trouver (en-dessous).\P\P4. Découper le long de la ligne, installer les inserts selon les directives.\P\P5. Installer les raccords et l'assemblage du renvoi selon les directives fournies par le fabricant.\P\P6. Appliquer la pâte isolante d'installa
  3
tion sur le pourtour de l'évier et installer ce dernier à l'aide des agrafes incluses.\P\P7. À l'aide d'un linge ou d'une éponge humide, essuyer soigneusement tout surplus de pâte isolante sur le comptoir et le pourtour de l'évier.\P\P8. Raccorder av
  1
ec l'approvisionnement en eau et s'assurer qu'il n'y a aucune fuite.}
  7
STD
 73
     1
 44
1.0
1001
ACAD
1000
MTEXTBEGIN
1070
    73
1070
     1
1070
    44
1040
1.0
1070
    74
1070
     0
1000
MTEXTEND
  0
MTEXT
  5
4F6
330
1E
100
AcDbEntity
  8
0
 62
     6
100
AcDbMText
 10
1.118730126115366
 20
7.649269161260193
 30
0.0
 40
0.08
 41
4.25
 71
     1
 72
     5
  3
{\LNOTA:\P}Utilizado solamente en cubiertas con un grueso mínimo de 1". (25mm).\PEl instalador debe suministrar los refuerzos para las cubiertas más delgadas.\P\P{\LLOCALIZACIÓN DE LOS REFUERZOS\P}Para superficies sólidas:\P- Perfore un agujero de 3/
  1
8" de diámetro por 1/2" de profundidad.\P- Inserte el refuerzo de cobre (extremo roscado); y el epoxy o resina en el lugar indicado (epoxy o resina no suministrado).\P- Para la superficie de madera.- Refuerzos no suministrados.
  7
STD
 73
     1
 44
1.0
1001
ACAD
1000
MTEXTBEGIN
1070
    73
1070
     1
1070
    44
1040
1.0
1070
    74
1070
     0
1000
MTEXTEND
  0
MTEXT
  5
4F7
330
1E
100
AcDbEntity
  8
0
 62
     6
100
AcDbMText
 10
1.118730126115366
 20
5.449255741667748
 30
0.0
 40
0.08
 41
5.0
 71
     1
 72
     5
  3
NOTE:\PÀ n'utiliser que sur les dessus de comptoirs d'une épaisseur minimale de 1 po (25 mm).\PPour les dessus de comptoirs plus minces, l'installateur doit fournir des agrafes d'ancrage.\P\PEMPLACEMENT DES AGRAFES D'ANCRAGE\PPour les surfaces solide
  3
s:\P- Forer un trou d'un diamètre de 3/8 po x ½ po de profondeur.\P- Insérer les inserts en laiton (extrémité filetée exposée); mettre l'époxyde en place (l'époxyde n'est pas fourni)\PPour les surfaces en bois: les agrafes d'ancrage ne sont pas fourn
  1
ies.
  7
STD
 73
     1
 44
1.0
1001
ACAD
1000
MTEXTBEGIN
1070
    73
1070
     1
1070
    44
1040
1.0
1070
    74
1070
     0
1000
MTEXTEND
  0
MTEXT
  5
508
330
1E
100
AcDbEntity
  8
0
 62
     6
100
AcDbMText
 10
26.58435911128134
 20
15.14036618177364
 30
0.0
 40
0.12
 41
4.687447970629114
 71
     1
 72
     5
  1
Inner contour of basin rim\PLinea interior del borde de el lavamanos\PContour intérieur du rebord du lavabo
  7
STD
 73
     1
 44
1.0
1001
ACAD
1000
MTEXTBEGIN
1070
    73
1070
     1
1070
    44
1040
1.0
1070
    74
1070
     0
1000
MTEXTEND
  0
LEADER
  5
509
330
1E
100
AcDbEntity
  8
DIM
100
AcDbLeader
  3
Standard
 76
     2
 10
23.27689306109381
 20
13.43673231880973
 30
0.0
 10
25.98596189726578
 20
14.90964825912065
 30
0.0
  0
LINE
  5
50A
330
1E
100
AcDbEntity
  8
DIM
100
AcDbLine
 10
25.98596189726578
 20
14.90964825912065
 30
0.0
 11
26.42618877937241
 21
14.90964825912065
 31
0.0
  0
LEADER
  5
5C5
330
1E
100
AcDbEntity
  8
DIM
100
AcDbLeader
  3
Standard
 73
     0
 40
0.125
 76
     3
 10
23.57190348736484
 20
16.8649817896088
 30
0.0
 10
24.37580722157698
 20
18.05236238808067
 30
0.0
 10
24.48940230588974
 20
18.05236238808067
 30
0.0
340
5C6
213
0.0
223
-0.0625
233
0.0
  0
MTEXT
  5
5C6
102
{ACAD_REACTORS
330
5C5
102
}
330
1E
100
AcDbEntity
  8
OBJ
100
AcDbMText
 10
24.41036283369808
 20
18.08269144702687
 30
0.0
 40
0.125
 41
0.0
 71
     1
 72
     1
  1

 73
     1
 44
1.0
1001
ACAD
1000
MTEXTBEGIN
1070
    73
1070
     1
1070
    44
1040
1.0
1070
    74
1070
     0
1000
MTEXTEND
  0
LINE
  5
5D3
330
1E
100
AcDbEntity
  8
DBDR
100
AcDbLine
 10
31.50000000000001
 20
23.53466864546302
 30
0.0
 11
31.5
 21
0.0000000000000036
 31
0.0
  0
LINE
  5
5D4
330
1E
100
AcDbEntity
  8
DBDR
100
AcDbLine
 10
31.5
 20
0.0000000000000036
 30
0.0
 11
0.0
 21
0.0
 31
0.0
  0
LINE
  5
5D5
330
1E
100
AcDbEntity
  8
DBDR
100
AcDbLine
 10
0.0
 20
0.0
 30
0.0
 11
0.0
 21
23.53466864546302
 31
0.0
  0
LINE
  5
623
330
1E
100
AcDbEntity
  8
DIM
100
AcDbLine
 10
14.98775060218268
 20
17.48284321355852
 30
0.0
 11
7.780210200154655
 21
17.48284321355852
 31
0.0
  0
DIMENSION
  5
624
330
1E
100
AcDbEntity
  8
DIM
100
AcDbDimension
  2
*D21
 10
6.645796121495336
 20
17.48284321355852
 30
0.0
 11
6.645796121495333
 21
18.91740791050685
 31
0.0
 70
    32
  1
2.88 [73]
 71
     5
 42
2.869129393896663
  3
Standard
100
AcDbAlignedDimension
 13
8.000368973375259
 23
20.35197260745519
 33
0.0
 14
7.780210200154655
 24
17.48284321355852
 34
0.0
 50
90.0
100
AcDbRotatedDimension
1001
ACAD
1000
DSTYLE
1002
{
1070
    41
1040
0.125
1070
    44
1040
0.125
1070
   140
1040
0.125
1070
   141
1040
0.125
1070
   174
1070
     1
1070
   179
1070
     2
1070
   271
1070
     3
1070
   272
1070
     3
1070
   279
1070
     2
1002
}
  0
LINE
  5
651
330
1E
100
AcDbEntity
  8
OBJ
100
AcDbLine
 10
21.80576841541467
 20
5.206915247633256
 30
0.0
 11
22.01520945430294
 21
5.369266675230863
 31
0.0
  0
ARC
  5
652
330
1E
100
AcDbEntity
  8
OBJ
100
AcDbCircle
 10
17.68930085220307
 20
11.21583748738372
 30
0.0
 40
7.25
100
AcDbArc
 50
0.0
 51
53.36772235056491
  0
ARC
  5
653
330
1E
100
AcDbEntity
  8
OBJ
100
AcDbCircle
 10
15.37545914233233
 20
7.361871079300312
 30
0.0
 40
11.75
100
AcDbArc
 50
56.82073527208976
 51
89.73198304670017
  0
ARC
  5
654
330
1E
100
AcDbEntity
  8
OBJ
100
AcDbCircle
 10
13.19835275672128
 20
11.21583748738372
 30
0.0
 40
7.25
100
AcDbArc
 50
126.632277649435
 51
180.0
  0
ARC
  5
655
330
1E
100
AcDbEntity
  8
OBJ
100
AcDbCircle
 10
13.19835275672128
 20
11.18725728765697
 30
0.0
 40
7.25
100
AcDbArc
 50
180.0
 51
233.3677223505649
  0
ARC
  5
656
330
1E
100
AcDbEntity
  8
OBJ
100
AcDbCircle
 10
15.51219446659202
 20
7.361871079300312
 30
0.0
 40
11.75
100
AcDbArc
 50
90.26801695329984
 51
123.1792647279102
  0
ARC
  5
657
330
1E
100
AcDbEntity
  8
OBJ
100
AcDbCircle
 10
15.51219446659202
 20
15.04122369574038
 30
0.0
 40
11.75
100
AcDbArc
 50
236.8207352720898
 51
269.7319830467002
  0
LINE
  5
658
330
1E
100
AcDbEntity
  8
OBJ
100
AcDbLine
 10
8.872444154621408
 20
5.369266675230865
 30
0.0
 11
9.081885193509684
 21
5.206915247633252
 31
0.0
  0
LINE
  5
659
330
1E
100
AcDbEntity
  8
OBJ
100
AcDbLine
 10
8.872444154621412
 20
17.03382809980984
 30
0.0
 11
9.081885193509682
 21
17.19617952740744
 31
0.0
  0
LINE
  5
65A
330
1E
100
AcDbEntity
  8
OBJ
100
AcDbLine
 10
21.80576841541467
 20
17.19617952740744
 30
0.0
 11
22.01520945430294
 21
17.03382809980983
 31
0.0
  0
ARC
  5
65F
330
1E
100
AcDbEntity
  8
PHAN
100
AcDbCircle
 10
15.51219446659202
 20
15.04122369574038
 30
0.0
 40
10.5
100
AcDbArc
 50
236.8207352720898
 51
269.7319830467002
  0
ARC
  5
660
330
1E
100
AcDbEntity
  8
PHAN
100
AcDbCircle
 10
13.19835275672128
 20
11.18725728765697
 30
0.0
 40
6.0
100
AcDbArc
 50
180.0
 51
233.3677223505649
  0
ARC
  5
661
330
1E
100
AcDbEntity
  8
PHAN
100
AcDbCircle
 10
13.19835275672128
 20
11.21583748738372
 30
0.0
 40
6.0
100
AcDbArc
 50
126.632277649435
 51
180.0
  0
ARC
  5
662
330
1E
100
AcDbEntity
  8
PHAN
100
AcDbCircle
 10
15.51219446659202
 20
7.361871079300312
 30
0.0
 40
10.5
100
AcDbArc
 50
90.26801695329984
 51
123.1792647279102
  0
ARC
  5
663
330
1E
100
AcDbEntity
  8
PHAN
100
AcDbCircle
 10
15.37545914233233
 20
7.361871079300312
 30
0.0
 40
10.5
100
AcDbArc
 50
56.82073527208976
 51
89.73198304670017
  0
ARC
  5
664
330
1E
100
AcDbEntity
  8
PHAN
100
AcDbCircle
 10
17.68930085220307
 20
11.21583748738372
 30
0.0
 40
6.0
100
AcDbArc
 50
0.0
 51
53.36772235056491
  0
ARC
  5
665
330
1E
100
AcDbEntity
  8
PHAN
100
AcDbCircle
 10
17.68930085220307
 20
11.18725728765697
 30
0.0
 40
6.0
100
AcDbArc
 50
306.6322776494351
 51
0.0
  0
ARC
  5
666
330
1E
100
AcDbEntity
  8
PHAN
100
AcDbCircle
 10
15.37545914233233
 20
15.04122369574038
 30
0.0
 40
10.5
100
AcDbArc
 50
270.2680169532998
 51
303.1792647279103
  0
ARC
  5
667
330
1E
100
AcDbEntity
  8
HID
100
AcDbCircle
 10
15.51219446659202
 20
15.04122369574038
 30
0.0
 40
10.12
100
AcDbArc
 50
236.8207352720898
 51
269.7319830467002
  0
ARC
  5
668
330
1E
100
AcDbEntity
  8
HID
100
AcDbCircle
 10
13.19835275672128
 20
11.18725728765697
 30
0.0
 40
5.62
100
AcDbArc
 50
180.0
 51
233.3677223505649
  0
ARC
  5
669
330
1E
100
AcDbEntity
  8
HID
100
AcDbCircle
 10
13.19835275672128
 20
11.21583748738372
 30
0.0
 40
5.62
100
AcDbArc
 50
126.632277649435
 51
180.0
  0
ARC
  5
66A
330
1E
100
AcDbEntity
  8
HID
100
AcDbCircle
 10
15.51219446659202
 20
7.361871079300312
 30
0.0
 40
10.12
100
AcDbArc
 50
90.26801695329984
 51
123.1792647279102
  0
ARC
  5
66B
330
1E
100
AcDbEntity
  8
HID
100
AcDbCircle
 10
15.37545914233233
 20
7.361871079300312
 30
0.0
 40
10.12
100
AcDbArc
 50
56.82073527208976
 51
89.73198304670017
  0
ARC
  5
66C
330
1E
100
AcDbEntity
  8
HID
100
AcDbCircle
 10
17.68930085220307
 20
11.21583748738372
 30
0.0
 40
5.62
100
AcDbArc
 50
0.0
 51
53.36772235056491
  0
ARC
  5
66D
330
1E
100
AcDbEntity
  8
HID
100
AcDbCircle
 10
17.68930085220307
 20
11.18725728765697
 30
0.0
 40
5.62
100
AcDbArc
 50
306.6322776494351
 51
0.0
  0
ARC
  5
66E
330
1E
100
AcDbEntity
  8
HID
100
AcDbCircle
 10
15.37545914233233
 20
15.04122369574038
 30
0.0
 40
10.12
100
AcDbArc
 50
270.2680169532998
 51
303.1792647279103
  0
LINE
  5
670
330
1E
100
AcDbEntity
  8
PHAN
100
AcDbLine
 10
9.76596064809291
 20
6.253118274027629
 30
0.0
 11
9.613706175911829
 21
6.374054968781415
 31
0.0
  0
LINE
  5
671
330
1E
100
AcDbEntity
  8
PHAN
100
AcDbLine
 10
21.12169296083145
 20
16.14997650101306
 30
0.0
 11
21.26936314359607
 21
16.03072627008119
 31
0.0
  0
LINE
  5
672
330
1E
100
AcDbEntity
  8
PHAN
100
AcDbLine
 10
9.76596064809291
 20
16.14997650101307
 30
0.0
 11
9.618290465328286
 21
16.03072627008119
 31
0.0
  0
LINE
  5
6A1
330
1E
100
AcDbEntity
  8
DBDR
100
AcDbLine
 10
0.0
 20
23.53466864546302
 30
0.0
 11
31.50000000000001
 21
23.53466864546302
 31
0.0
  0
LINE
  5
6A8
330
1E
100
AcDbEntity
  8
HID
100
AcDbLine
 10
20.94204686756417
 20
6.589522554312928
 30
0.0
 11
21.01711287750418
 21
6.648899852177514
 31
0.0
  0
TEXT
  5
6D3
330
1E
100
AcDbEntity
  8
0
 62
     6
100
AcDbText
 10
28.32210292800287
 20
0.1442879633769907
 30
0.0
 40
0.075
  1
SCALE
  7
STD
100
AcDbText
  0
TEXT
  5
6D4
330
1E
100
AcDbEntity
  8
0
 62
     6
100
AcDbText
 10
28.32210292800287
 20
0.3806832829651172
 30
0.0
 40
0.075
  1
DATE
  7
STD
100
AcDbText
  0
TEXT
  5
6D5
330
1E
100
AcDbEntity
  8
0
 62
     6
100
AcDbText
 10
27.25382605941815
 20
0.7902936499301008
 30
0.0
 40
0.075
  1
CHECKED
  7
STD
100
AcDbText
  0
LINE
  5
6D6
330
1E
100
AcDbEntity
  8
0
 62
     6
100
AcDbLine
 10
27.18000000000001
 20
0.8936376399074335
 30
0.0
 11
27.18000000000001
 21
0.5936376399074506
 31
0.0
  0
TEXT
  5
6D7
330
1E
100
AcDbEntity
  8
0
 62
     6
100
AcDbText
 10
26.18230805304336
 20
0.1969584394642767
 30
0.0
 40
0.075
  1
SUPERSEDES
  7
STD
100
AcDbText
  0
TEXT
  5
6D8
330
1E
100
AcDbEntity
  8
0
 62
     6
100
AcDbText
 10
26.18230805304336
 20
0.4995090681619504
 30
0.0
 40
0.075
  1
APPROVED
  7
STD
100
AcDbText
  0
TEXT
  5
6D9
330
1E
100
AcDbEntity
  8
0
 62
     6
100
AcDbText
 10
26.18230805304336
 20
0.7896586379597979
 30
0.0
 40
0.075
  1
DRAWN
  7
STD
100
AcDbText
  0
TEXT
  5
6DC
330
1E
100
AcDbEntity
  8
0
 62
     6
100
AcDbText
 10
26.19063176598266
 20
2.238515754169577
 30
0.0
 40
0.075
  1
DESCRIPTION
  7
STD
100
AcDbText
  0
TEXT
  5
6DE
330
1E
100
AcDbEntity
  8
0
 62
     6
100
AcDbText
 10
29.29862947460845
 20
0.3725287817412892
 30
0.0
 40
0.075
  1
DRAWING NUMBER
  7
STD
100
AcDbText
  0
TEXT
  5
6DF
330
1E
100
AcDbEntity
  8
0
 62
     6
100
AcDbText
 10
28.89370523741551
 20
0.6353857659922769
 30
0.0
 40
0.12
  1
PLUMBING PRODUCTS
  7
STD
100
AcDbText
  0
LINE
  5
6E0
330
1E
100
AcDbEntity
  8
0
 62
     6
100
AcDbLine
 10
26.09999999999999
 20
0.2936376399074394
 30
0.0
 11
28.25
 21
0.2936376399074394
 31
0.0
  0
LINE
  5
6E1
330
1E
100
AcDbEntity
  8
0
 62
     6
100
AcDbLine
 10
26.09999999999999
 20
0.5936376399074222
 30
0.0
 11
28.25
 21
0.5936376399074506
 31
0.0
  0
LINE
  5
6E2
330
1E
100
AcDbEntity
  8
0
 62
     6
100
AcDbLine
 10
26.09999999999999
 20
0.8936376399074335
 30
0.0
 11
28.25
 21
0.8936376399074335
 31
0.0
  0
LINE
  5
6E3
330
1E
100
AcDbEntity
  8
0
 62
     6
100
AcDbLine
 10
26.09999999999999
 20
1.313637639907449
 30
0.0
 11
28.25
 21
1.313637639907449
 31
0.0
  0
LINE
  5
6E4
330
1E
100
AcDbEntity
  8
0
 62
     6
100
AcDbLine
 10
28.25
 20
0.243637639907428
 30
0.0
 11
29.25
 21
0.243637639907428
 31
0.0
  0
TEXT
  5
6E5
330
1E
100
AcDbEntity
  8
0
 62
     6
100
AcDbText
 10
28.98753455411807
 20
0.9085352989923707
 30
0.0
 40
0.3
  1
Standard
  7
SCRIPTS
100
AcDbText
  0
TEXT
  5
6E6
330
1E
100
AcDbEntity
  8
0
 62
     6
100
AcDbText
 10
28.99621584243826
 20
1.307860528316518
 30
0.0
 40
0.3
  1
American 
  7
SCRIPTS
100
AcDbText
  0
TEXT
  5
6E7
330
1E
100
AcDbEntity
  8
0
 62
     6
100
AcDbText
 10
28.97550965043877
 20
0.9105398187075993
 30
0.0
 40
0.3
  1
Standard
  7
SCRIPTS
100
AcDbText
  0
TEXT
  5
6E8
330
1E
100
AcDbEntity
  8
0
 62
     6
100
AcDbText
 10
28.98819923998539
 20
1.315878607177518
 30
0.0
 40
0.3
  1
American 
  7
SCRIPTS
100
AcDbText
  0
LINE
  5
6EA
330
1E
100
AcDbEntity
  8
OL
100
AcDbLine
 10
26.09999999999999
 20
2.363637639907432
 30
0.0
 11
31.5
 21
2.363637639907432
 31
0.0
  0
LINE
  5
6EB
330
1E
100
AcDbEntity
  8
OL
100
AcDbLine
 10
26.09999999999999
 20
1.743637639907427
 30
0.0
 11
31.5
 21
1.743637639907427
 31
0.0
  0
LINE
  5
6EC
330
1E
100
AcDbEntity
  8
OL
100
AcDbLine
 10
26.09999999999999
 20
2.363637639907432
 30
0.0
 11
26.09999999999999
 21
0.0000000000000036
 31
0.0
  0
LINE
  5
6ED
330
1E
100
AcDbEntity
  8
OL
100
AcDbLine
 10
28.25
 20
1.743637639907427
 30
0.0
 11
28.25
 21
0.0000000000000036
 31
0.0
  0
LINE
  5
6EE
330
1E
100
AcDbEntity
  8
OL
100
AcDbLine
 10
28.25
 20
0.4936376399074279
 30
0.0
 11
31.5
 21
0.4936376399074279
 31
0.0
  0
LINE
  5
6EF
330
1E
100
AcDbEntity
  8
OL
100
AcDbLine
 10
29.25
 20
0.4936376399074279
 30
0.0
 11
29.25
 21
0.0000000000000036
 31
0.0
  0
LINE
  5
6F0
330
1E
100
AcDbEntity
  8
OL
100
AcDbLine
 10
31.115
 20
0.4936376399074279
 30
0.0
 11
31.115
 21
0.0000000000000036
 31
0.0
  0
LINE
  5
6F1
330
1E
100
AcDbEntity
  8
OL
100
AcDbLine
 10
30.125
 20
1.743637639907427
 30
0.0
 11
30.125
 21
2.363637639907432
 31
0.0
  0
LINE
  5
6F2
330
1E
100
AcDbEntity
  8
0
 62
     6
100
AcDbLine
 10
24.96438265965674
 20
2.363637639907432
 30
0.0
 11
24.96438265965674
 21
0.0000000000000036
 31
0.0
  0
LINE
  5
6F3
330
1E
100
AcDbEntity
  8
0
 62
     6
100
AcDbLine
 10
25.36438265965671
 20
2.363637639907432
 30
0.0
 11
25.36438265965671
 21
0.0000000000000036
 31
0.0
  0
LINE
  5
6F5
330
1E
100
AcDbEntity
  8
0
 62
     6
100
AcDbLine
 10
22.60438265965671
 20
2.131415417685213
 30
0.0
 11
26.06438265965673
 21
2.131415417685213
 31
0.0
  0
LINE
  5
6F6
330
1E
100
AcDbEntity
  8
0
 62
     6
100
AcDbLine
 10
22.60438265965671
 20
1.899193195462993
 30
0.0
 11
26.06438265965673
 21
1.899193195462993
 31
0.0
  0
LINE
  5
6F7
330
1E
100
AcDbEntity
  8
0
 62
     6
100
AcDbLine
 10
22.60438265965671
 20
1.666970973240774
 30
0.0
 11
26.06438265965673
 21
1.666970973240774
 31
0.0
  0
LINE
  5
6F8
330
1E
100
AcDbEntity
  8
0
 62
     6
100
AcDbLine
 10
22.60438265965671
 20
1.434748751018554
 30
0.0
 11
26.06438265965673
 21
1.434748751018554
 31
0.0
  0
LINE
  5
6F9
330
1E
100
AcDbEntity
  8
0
 62
     6
100
AcDbLine
 10
22.60438265965671
 20
1.202526528796335
 30
0.0
 11
26.06438265965673
 21
1.202526528796335
 31
0.0
  0
LINE
  5
6FA
330
1E
100
AcDbEntity
  8
0
 62
     6
100
AcDbLine
 10
22.60438265965671
 20
0.9703043065741159
 30
0.0
 11
26.06438265965673
 21
0.9703043065741159
 31
0.0
  0
LINE
  5
6FB
330
1E
100
AcDbEntity
  8
0
 62
     6
100
AcDbLine
 10
22.60438265965671
 20
0.7380820843518681
 30
0.0
 11
26.06438265965673
 21
0.7380820843518681
 31
0.0
  0
LINE
  5
6FC
330
1E
100
AcDbEntity
  8
0
 62
     6
100
AcDbLine
 10
22.60438265965671
 20
0.5058598621296487
 30
0.0
 11
26.06438265965673
 21
0.5058598621296487
 31
0.0
  0
LINE
  5
6FD
330
1E
100
AcDbEntity
  8
0
 62
     6
100
AcDbLine
 10
22.60438265965671
 20
0.243637639907428
 30
0.0
 11
26.06438265965673
 21
0.243637639907428
 31
0.0
  0
TEXT
  5
6FE
330
1E
100
AcDbEntity
  8
0
 62
     6
100
AcDbText
 10
24.99878341936733
 20
0.0890457981608344
 30
0.0
 40
0.08
  1
DATE
  7
STD
100
AcDbText
  0
TEXT
  5
6FF
330
1E
100
AcDbEntity
  8
0
 62
     6
100
AcDbText
 10
25.56995104364094
 20
0.0871776554496031
 30
0.0
 40
0.08
  1
E.C.N.
  7
STD
100
AcDbText
  0
TEXT
  5
701
330
1E
100
AcDbEntity
  8
0
 62
     6
100
AcDbText
 10
23.52617660089263
 20
0.0833653364652443
 30
0.0
 40
0.08
  1
DESCRIPTION
  7
STD
100
AcDbText
  0
TEXT
  5
702
330
1E
100
AcDbEntity
  8
0
 62
     6
100
AcDbText
 10
22.68721266472564
 20
0.0852338405678333
 30
0.0
 40
0.08
  1
REF.
  7
STD
100
AcDbText
  0
LINE
  5
703
330
1E
100
AcDbEntity
  8
0
 62
     6
100
AcDbLine
 10
22.99438265965673
 20
2.363637639907432
 30
0.0
 11
22.99438265965673
 21
0.0000000000000036
 31
0.0
  0
LINE
  5
704
330
1E
100
AcDbEntity
  8
OL
100
AcDbLine
 10
22.60438265965671
 20
2.363637639907432
 30
0.0
 11
26.06438265965673
 21
2.363637639907432
 31
0.0
  0
LINE
  5
705
330
1E
100
AcDbEntity
  8
OL
100
AcDbLine
 10
26.06438265965673
 20
2.363637639907432
 30
0.0
 11
26.06438265965673
 21
0.0000000000000036
 31
0.0
  0
LINE
  5
706
330
1E
100
AcDbEntity
  8
OL
100
AcDbLine
 10
22.60438265965671
 20
2.363637639907432
 30
0.0
 11
22.60438265965671
 21
0.0000000000000036
 31
0.0
  0
LINE
  5
719
330
1E
100
AcDbEntity
  8
TEXT
100
AcDbLine
 10
0.7907662794637674
 20
2.036504463802451
 30
0.0
 11
0.7907662794637674
 21
1.370952668128111
 31
0.0
  0
LINE
  5
71A
330
1E
100
AcDbEntity
  8
TEXT
100
AcDbLine
 10
12.79076627946376
 20
2.036504463802451
 30
0.0
 11
12.79076627946376
 21
1.370952668128111
 31
0.0
  0
LINE
  5
71B
330
1E
100
AcDbEntity
  8
TEXT
100
AcDbLine
 10
0.7907662794637674
 20
1.751267987864004
 30
0.0
 11
6.358297819512259
 21
1.751267987864004
 31
0.0
  0
TEXT
  5
71C
330
1E
100
AcDbEntity
  8
TEXT
100
AcDbText
 10
6.643812229708089
 20
1.608649722167847
 30
0.0
 40
0.25
  1
12"
100
AcDbText
  0
LINE
  5
71F
330
1E
100
AcDbEntity
  8
TEXT
100
AcDbLine
 10
7.547941231410234
 20
1.751267987864004
 30
0.0
 11
12.79076627946376
 21
1.751267987864004
 31
0.0
  0
TEXT
  5
726
330
1E
100
AcDbEntity
  8
TEXT
100
AcDbText
 10
23.08428614629368
 20
0.2978192718903969
 30
0.0
 40
0.15
  1
ISSUE
100
AcDbText
  0
TEXT
  5
727
330
1E
100
AcDbEntity
  8
TEXT
100
AcDbText
 10
25.0615967231318
 20
0.3825527006697911
 30
0.0
 40
0.07
  1
10/7
 41
0.8
 72
     1
 11
25.15026338979847
 21
0.3825527006697911
 31
0.0
100
AcDbText
  0
TEXT
  5
728
330
1E
100
AcDbEntity
  8
TEXT
100
AcDbText
 10
25.10826338979847
 20
0.2840695837038141
 30
0.0
 40
0.07
  1
02
 41
0.8
 72
     1
 11
25.15026338979847
 21
0.2840695837038141
 31
0.0
100
AcDbText
  0
TEXT
  5
729
330
1E
100
AcDbEntity
  8
TEXT
100
AcDbText
 10
25.53680976094864
 20
0.3825527006697911
 30
0.0
 40
0.07
  1
C-VC-02
 41
0.8
 72
     1
 11
25.72814309428198
 21
0.3825527006697911
 31
0.0
100
AcDbText
  0
TEXT
  5
72A
330
1E
100
AcDbEntity
  8
TEXT
100
AcDbText
 10
25.55547642761531
 20
0.2840695837038141
 30
0.0
 40
0.07
  1
700-750
 41
0.8
 72
     1
 11
25.72814309428198
 21
0.2840695837038141
 31
0.0
100
AcDbText
  0
INSERT
  5
821
330
1E
100
AcDbEntity
  8
TEXT
100
AcDbBlockReference
  2
Full Scale Note
 10
6.814604012895955
 20
1.184654971523201
 30
0.0
  0
ENDSEC
  0
SECTION
  2
OBJECTS
  0
DICTIONARY
  5
C
330
0
100
AcDbDictionary
281
     1
  3
ACAD_COLOR
350
730
  3
ACAD_GROUP
350
D
  3
ACAD_LAYOUT
350
19
  3
ACAD_MATERIAL
350
72F
  3
ACAD_MLEADERSTYLE
350
7DE
  3
ACAD_MLINESTYLE
350
16
  3
ACAD_PLOTSETTINGS
350
18
  3
ACAD_PLOTSTYLENAME
350
E
  3
ACAD_SCALELIST
350
7BC
  3
ACAD_TABLESTYLE
350
731
  3
ACAD_VISUALSTYLE
350
78F
  3
ACDB_RECOMPOSE_DATA
350
80E
  3
AcDbVariableDictionary
350
72C
  3
ASE_INDEX_DICTIONARY
350
6B0
  3
DWGPROPS
350
828
  0
DICTIONARY
  5
7E6
330
10
100
AcDbDictionary
280
     1
281
     1
  3
ADSK_XREC_LAYER_RECONCILED
360
7E7
  0
DICTIONARY
  5
7E8
330
2E
100
AcDbDictionary
280
     1
281
     1
  3
ADSK_XREC_LAYER_RECONCILED
360
7E9
  0
DICTIONARY
  5
7EA
330
2F
100
AcDbDictionary
280
     1
281
     1
  3
ADSK_XREC_LAYER_RECONCILED
360
7EB
  0
DICTIONARY
  5
7EC
330
30
100
AcDbDictionary
280
     1
281
     1
  3
ADSK_XREC_LAYER_RECONCILED
360
7ED
  0
DICTIONARY
  5
7EE
330
31
100
AcDbDictionary
280
     1
281
     1
  3
ADSK_XREC_LAYER_RECONCILED
360
7EF
  0
DICTIONARY
  5
7F0
330
32
100
AcDbDictionary
280
     1
281
     1
  3
ADSK_XREC_LAYER_RECONCILED
360
7F1
  0
DICTIONARY
  5
7F4
330
35
100
AcDbDictionary
280
     1
281
     1
  3
ADSK_XREC_LAYER_RECONCILED
360
7F5
  0
DICTIONARY
  5
7F6
330
36
100
AcDbDictionary
280
     1
281
     1
  3
ADSK_XREC_LAYER_RECONCILED
360
7F7
  0
DICTIONARY
  5
7F8
330
37
100
AcDbDictionary
280
     1
281
     1
  3
ADSK_XREC_LAYER_RECONCILED
360
7F9
  0
DICTIONARY
  5
7FA
330
D5
100
AcDbDictionary
280
     1
281
     1
  3
ADSK_XREC_LAYER_RECONCILED
360
7FB
  0
DICTIONARY
  5
804
330
2CB
100
AcDbDictionary
280
     1
281
     1
  3
ADSK_XREC_LAYER_RECONCILED
360
805
  0
DICTIONARY
  5
806
330
2CC
100
AcDbDictionary
280
     1
281
     1
  3
ADSK_XREC_LAYER_RECONCILED
360
807
  0
DICTIONARY
  5
81C
330
81A
100
AcDbDictionary
280
     1
281
     1
  3
ACAD_SORTENTS
360
81D
  0
DICTIONARY
  5
730
102
{ACAD_REACTORS
330
C
102
}
330
C
100
AcDbDictionary
281
     1
  0
DICTIONARY
  5
D
102
{ACAD_REACTORS
330
C
102
}
330
C
100
AcDbDictionary
281
     1
  3
*A1
350
2CF
  3
*A10
350
2D0
  3
*A11
350
5C4
  3
*A12
350
2D2
  3
*A13
350
2D1
  3
*A14
350
2D3
  3
*A15
350
2D5
  3
*A16
350
2D4
  3
*A17
350
2D6
  3
*A18
350
2D8
  3
*A19
350
2D7
  3
*A2
350
2DA
  3
*A20
350
2D9
  3
*A3
350
2DB
  3
*A4
350
2DD
  3
*A5
350
2DC
  3
*A6
350
2DE
  3
*A7
350
2E0
  3
*A8
350
2DF
  3
*A9
350
5C3
  0
DICTIONARY
  5
19
102
{ACAD_REACTORS
330
C
102
}
330
C
100
AcDbDictionary
281
     1
  3
Layout1
350
1D
  3
Model
350
21
  0
DICTIONARY
  5
72F
102
{ACAD_REACTORS
330
C
102
}
330
C
100
AcDbDictionary
281
     1
  3
ByBlock
350
78D
  3
ByLayer
350
78C
  3
Global
350
78E
  0
DICTIONARY
  5
7DE
102
{ACAD_REACTORS
330
C
102
}
330
C
100
AcDbDictionary
281
     1
  3
Standard
350
7DF
  0
DICTIONARY
  5
16
102
{ACAD_REACTORS
330
C
102
}
330
C
100
AcDbDictionary
281
     1
  3
Standard
350
17
  0
DICTIONARY
  5
18
102
{ACAD_REACTORS
330
C
102
}
330
C
100
AcDbDictionary
281
     1
  0
ACDBDICTIONARYWDFLT
  5
E
102
{ACAD_REACTORS
330
C
102
}
330
C
100
AcDbDictionary
281
     1
  3
Normal
350
F
100
AcDbDictionaryWithDefault
340
F
  0
DICTIONARY
  5
7BC
102
{ACAD_REACTORS
330
C
102
}
330
C
100
AcDbDictionary
281
     1
  3
A0
350
7BD
  3
A1
350
7BE
  3
A2
350
7BF
  3
A3
350
7C0
  3
A4
350
7C1
  3
A5
350
7C2
  3
A6
350
7C3
  3
A7
350
7C4
  3
A8
350
7C5
  3
A9
350
7C6
  3
B0
350
7C7
  3
B1
350
7C8
  3
B2
350
7C9
  3
B3
350
7CA
  3
B4
350
7CB
  3
B5
350
7CC
  3
B6
350
7CD
  3
B7
350
7CE
  3
B8
350
7CF
  3
B9
350
7D0
  3
C0
350
7D1
  3
C1
350
7D2
  3
C2
350
7D3
  3
C3
350
7D4
  3
C4
350
7D5
  3
C5
350
7D6
  3
C6
350
7D7
  3
C7
350
7D8
  3
C8
350
7D9
  3
C9
350
7DA
  3
D0
350
7DB
  3
D1
350
7DC
  3
D2
350
7DD
  0
DICTIONARY
  5
731
102
{ACAD_REACTORS
330
C
102
}
330
C
100
AcDbDictionary
281
     1
  3
Standard
350
732
  0
DICTIONARY
  5
78F
102
{ACAD_REACTORS
330
C
102
}
330
C
100
AcDbDictionary
281
     1
  3
2dWireframe
350
795
  3
3D Hidden
350
797
  3
3dWireframe
350
796
  3
Basic
350
794
  3
Brighten
350
79B
  3
ColorChange
350
79F
  3
Conceptual
350
798
  3
Dim
350
79A
  3
Facepattern
350
79E
  3
Flat
350
790
  3
FlatWithEdges
350
791
  3
Gouraud
350
792
  3
GouraudWithEdges
350
793
  3
Linepattern
350
79D
  3
Realistic
350
799
  3
Thicken
350
79C
  0
XRECORD
  5
80E
102
{ACAD_REACTORS
330
C
102
}
330
C
100
AcDbXrecord
280
     1
 90
        1
330
624
330
732
  0
DICTIONARY
  5
72C
102
{ACAD_REACTORS
330
C
102
}
330
C
100
AcDbDictionary
281
     1
  3
CANNOSCALE
350
811
  3
CMLEADERSTYLE
350
80F
  3
CTABLESTYLE
350
741
  3
DIMASSOC
350
72D
  3
INDEXCTL
350
826
  3
LIGHTINGUNITS
350
812
  3
MSLTSCALE
350
810
  3
SORTENTS
350
825
  0
DICTIONARY
  5
6B0
102
{ACAD_REACTORS
330
C
102
}
330
C
100
AcDbDictionary
281
     1
  3
ASEBlockHierarchyIndexRecord
350
6B2
1001
DCO15
1040
1456741561.81
  0
XRECORD
  5
828
102
{ACAD_REACTORS
330
C
102
}
330
C
100
AcDbXrecord
280
     1
  1
DWGPROPS COOKIE
  2

  3

  4

  6

  7

  8
merlob
  9

300
=
301
=
302
=
303
=
304
=
305
=
306
=
307
=
308
=
309
=
 40
0.749763275462963
 41
2448978.529920139
 42
2454840.360791505
  1

 90
        0
  0
XRECORD
  5
7E7
102
{ACAD_REACTORS
330
7E6
102
}
330
7E6
100
AcDbXrecord
280
     1
290
     1
  0
XRECORD
  5
7E9
102
{ACAD_REACTORS
330
7E8
102
}
330
7E8
100
AcDbXrecord
280
     1
290
     1
  0
XRECORD
  5
7EB
102
{ACAD_REACTORS
330
7EA
102
}
330
7EA
100
AcDbXrecord
280
     1
290
     1
  0
XRECORD
  5
7ED
102
{ACAD_REACTORS
330
7EC
102
}
330
7EC
100
AcDbXrecord
280
     1
290
     1
  0
XRECORD
  5
7EF
102
{ACAD_REACTORS
330
7EE
102
}
330
7EE
100
AcDbXrecord
280
     1
290
     1
  0
XRECORD
  5
7F1
102
{ACAD_REACTORS
330
7F0
102
}
330
7F0
100
AcDbXrecord
280
     1
290
     1
  0
XRECORD
  5
7F5
102
{ACAD_REACTORS
330
7F4
102
}
330
7F4
100
AcDbXrecord
280
     1
290
     1
  0
XRECORD
  5
7F7
102
{ACAD_REACTORS
330
7F6
102
}
330
7F6
100
AcDbXrecord
280
     1
290
     1
  0
XRECORD
  5
7F9
102
{ACAD_REACTORS
330
7F8
102
}
330
7F8
100
AcDbXrecord
280
     1
290
     1
  0
XRECORD
  5
7FB
102
{ACAD_REACTORS
330
7FA
102
}
330
7FA
100
AcDbXrecord
280
     1
290
     1
  0
XRECORD
  5
805
102
{ACAD_REACTORS
330
804
102
}
330
804
100
AcDbXrecord
280
     1
290
     1
  0
XRECORD
  5
807
102
{ACAD_REACTORS
330
806
102
}
330
806
100
AcDbXrecord
280
     1
290
     1
  0
SORTENTSTABLE
  5
81D
102
{ACAD_REACTORS
330
81C
102
}
330
81C
100
AcDbSortentsTable
330
81A
  0
GROUP
  5
2CF
102
{ACAD_REACTORS
330
D
102
}
330
D
100
AcDbGroup
300

 70
     1
 71
     1
  0
GROUP
  5
2D0
102
{ACAD_REACTORS
330
D
102
}
330
D
100
AcDbGroup
300

 70
     1
 71
     1
  0
GROUP
  5
5C4
102
{ACAD_REACTORS
330
D
102
}
330
D
100
AcDbGroup
300

 70
     1
 71
     1
  0
GROUP
  5
2D2
102
{ACAD_REACTORS
330
D
102
}
330
D
100
AcDbGroup
300

 70
     1
 71
     1
  0
GROUP
  5
2D1
102
{ACAD_REACTORS
330
D
102
}
330
D
100
AcDbGroup
300

 70
     3
 71
     1
340
3FA
340
3F9
340
3E1
340
3E0
340
3DF
340
3DE
340
3DD
340
3D7
340
3D6
340
3D1
340
3D0
340
3CF
340
3CE
340
3F8
340
3D9
340
3D8
340
3D5
340
3D4
340
3D3
340
3DC
340
3DB
340
3DA
340
400
340
3FB
340
3FD
340
3F3
340
3E3
340
3E2
340
3FC
340
3F2
340
3F1
340
3F0
340
3EF
340
3E8
340
3E7
340
3E6
340
3D2
340
3EA
340
3E9
340
3E4
340
3E5
340
3FF
340
3FE
340
3F7
340
3F6
340
3F5
340
3F4
340
3EE
340
3ED
340
3EB
340
3EC
  0
GROUP
  5
2D3
102
{ACAD_REACTORS
330
D
102
}
330
D
100
AcDbGroup
300

 70
     1
 71
     1
  0
GROUP
  5
2D5
102
{ACAD_REACTORS
330
D
102
}
330
D
100
AcDbGroup
300

 70
     3
 71
     1
340
283
340
292
  0
GROUP
  5
2D4
102
{ACAD_REACTORS
330
D
102
}
330
D
100
AcDbGroup
300

 70
     1
 71
     1
  0
GROUP
  5
2D6
102
{ACAD_REACTORS
330
D
102
}
330
D
100
AcDbGroup
300

 70
     3
 71
     1
340
284
  0
GROUP
  5
2D8
102
{ACAD_REACTORS
330
D
102
}
330
D
100
AcDbGroup
300

 70
     3
 71
     1
340
28E
340
28D
340
28F
  0
GROUP
  5
2D7
102
{ACAD_REACTORS
330
D
102
}
330
D
100
AcDbGroup
300

 70
     3
 71
     1
340
286
340
285
  0
GROUP
  5
2DA
102
{ACAD_REACTORS
330
D
102
}
330
D
100
AcDbGroup
300

 70
     1
 71
     1
  0
GROUP
  5
2D9
102
{ACAD_REACTORS
330
D
102
}
330
D
100
AcDbGroup
300

 70
     3
 71
     1
340
291
340
290
  0
GROUP
  5
2DB
102
{ACAD_REACTORS
330
D
102
}
330
D
100
AcDbGroup
300

 70
     1
 71
     1
  0
GROUP
  5
2DD
102
{ACAD_REACTORS
330
D
102
}
330
D
100
AcDbGroup
300

 70
     1
 71
     1
  0
GROUP
  5
2DC
102
{ACAD_REACTORS
330
D
102
}
330
D
100
AcDbGroup
300

 70
     3
 71
     1
340
397
340
39B
340
399
340
398
340
39C
340
39A
  0
GROUP
  5
2DE
102
{ACAD_REACTORS
330
D
102
}
330
D
100
AcDbGroup
300

 70
     1
 71
     1
  0
GROUP
  5
2E0
102
{ACAD_REACTORS
330
D
102
}
330
D
100
AcDbGroup
300

 70
     1
 71
     1
  0
GROUP
  5
2DF
102
{ACAD_REACTORS
330
D
102
}
330
D
100
AcDbGroup
300

 70
     1
 71
     1
  0
GROUP
  5
5C3
102
{ACAD_REACTORS
330
D
102
}
330
D
100
AcDbGroup
300

 70
     1
 71
     1
340
4DB
340
4DF
340
4DD
340
4DC
340
4E0
340
4DE
  0
LAYOUT
  5
1D
102
{ACAD_XDICTIONARY
360
829
102
}
102
{ACAD_REACTORS
330
19
102
}
330
19
100
AcDbPlotSettings
  1

  2
None
  4

  6

 40
0.0
 41
0.0
 42
0.0
 43
0.0
 44
0.0
 45
0.0
 46
0.0
 47
0.0
 48
0.0
 49
0.0
140
0.0
141
0.0
142
1.0
143
1.0
 70
   688
 72
     0
 73
     0
 74
     5
  7
monochrome.ctb
 75
    16
147
1.0
148
0.0
149
0.0
100
AcDbLayout
  1
Layout1
 70
     0
 71
     1
 10
0.0
 20
0.0
 11
12.0
 21
9.0
 12
0.0
 22
0.0
 32
0.0
 14
1.000000000000000E+20
 24
1.000000000000000E+20
 34
1.000000000000000E+20
 15
-1.000000000000000E+20
 25
-1.000000000000000E+20
 35
-1.000000000000000E+20
146
0.0
 13
0.0
 23
0.0
 33
0.0
 16
1.0
 26
0.0
 36
0.0
 17
0.0
 27
1.0
 37
0.0
 76
     0
330
1A
  0
LAYOUT
  5
21
102
{ACAD_XDICTIONARY
360
82B
102
}
102
{ACAD_REACTORS
330
19
102
}
330
19
100
AcDbPlotSettings
  1

  2
\\piscnafsp1\PISCHPDJ800
  4
User1641
  6

 40
0.0
 41
0.0
 42
0.0
 43
0.0
 44
1016.0
 45
711.2000122070313
 46
0.0
 47
0.0
 48
0.0
 49
0.0
140
0.0
141
0.0
142
1.0
143
1.0
 70
 11952
 72
     0
 73
     0
 74
     1
  7
monochrome.ctb
 75
    16
147
1.0
148
0.0123828512465025
149
0.0091059577172899
100
AcDbLayout
  1
Model
 70
     1
 71
     0
 10
0.0
 20
0.0
 11
12.0
 21
9.0
 12
0.0
 22
0.0
 32
0.0
 14
0.0
 24
0.0
 34
0.0
 15
0.0
 25
0.0
 35
0.0
146
0.0
 13
0.0
 23
0.0
 33
0.0
 16
1.0
 26
0.0
 36
0.0
 17
0.0
 27
1.0
 37
0.0
 76
     0
330
1E
331
78A
1001
ACAD_PSEXT
1000
\\piscnafsp1\PISCHPDJ800
1000
HP DesignJet 800PS 42 by HP
1000
Design Center A Wing (865 Centennial)
1000

1070
     0
  0
MATERIAL
  5
78D
102
{ACAD_XDICTIONARY
360
830
102
}
102
{ACAD_REACTORS
330
72F
102
}
330
72F
100
AcDbMaterial
  1
ByBlock
 73
     1
 78
     1
172
     1
176
     1
270
     1
274
     1
  0
MATERIAL
  5
78C
102
{ACAD_XDICTIONARY
360
82E
102
}
102
{ACAD_REACTORS
330
72F
102
}
330
72F
100
AcDbMaterial
  1
ByLayer
 73
     1
 78
     1
172
     1
176
     1
270
     1
274
     1
  0
MATERIAL
  5
78E
102
{ACAD_XDICTIONARY
360
832
102
}
102
{ACAD_REACTORS
330
72F
102
}
330
72F
100
AcDbMaterial
  1
Global
 73
     1
 78
     1
172
     1
176
     1
270
     1
274
     1
  0
MLEADERSTYLE
  5
7DF
102
{ACAD_REACTORS
330
7DE
102
}
330
7DE
100
AcDbMLeaderStyle
170
     2
171
     1
172
     0
 90
        2
 40
0.0
 41
0.0
173
     1
 91
-1056964608
340
13
 92
       -2
290
     1
 42
0.09
291
     1
 43
0.36
  3
Standard
 44
0.18
300

342
11
174
     1
178
     6
175
     1
176
     0
 93
-1056964608
 45
0.18
292
     0
297
     0
 46
0.18
 94
-1056964608
 47
1.0
 49
1.0
140
1.0
293
     1
141
0.0
294
     1
177
     0
142
1.0
295
     0
296
     0
143
0.125
1001
ACAD_MLEADERVER
1070
     2
  0
MLINESTYLE
  5
17
102
{ACAD_REACTORS
330
16
102
}
330
16
100
AcDbMlineStyle
  2
STANDARD
 70
     0
  3

 62
   256
 51
90.0
 52
90.0
 71
     2
 49
0.5
 62
   256
  6
BYLAYER
 49
-0.5
 62
   256
  6
BYLAYER
  0
ACDBPLACEHOLDER
  5
F
102
{ACAD_REACTORS
330
E
102
}
330
E
  0
SCALE
  5
7BD
102
{ACAD_REACTORS
330
7BC
102
}
330
7BC
100
AcDbScale
 70
     0
300
1:1
140
1.0
141
1.0
290
     1
  0
SCALE
  5
7BE
102
{ACAD_REACTORS
330
7BC
102
}
330
7BC
100
AcDbScale
 70
     0
300
1:2
140
1.0
141
2.0
290
     0
  0
SCALE
  5
7BF
102
{ACAD_REACTORS
330
7BC
102
}
330
7BC
100
AcDbScale
 70
     0
300
1:4
140
1.0
141
4.0
290
     0
  0
SCALE
  5
7C0
102
{ACAD_REACTORS
330
7BC
102
}
330
7BC
100
AcDbScale
 70
     0
300
1:5
140
1.0
141
5.0
290
     0
  0
SCALE
  5
7C1
102
{ACAD_REACTORS
330
7BC
102
}
330
7BC
100
AcDbScale
 70
     0
300
1:8
140
1.0
141
8.0
290
     0
  0
SCALE
  5
7C2
102
{ACAD_REACTORS
330
7BC
102
}
330
7BC
100
AcDbScale
 70
     0
300
1:10
140
1.0
141
10.0
290
     0
  0
SCALE
  5
7C3
102
{ACAD_REACTORS
330
7BC
102
}
330
7BC
100
AcDbScale
 70
     0
300
1:16
140
1.0
141
16.0
290
     0
  0
SCALE
  5
7C4
102
{ACAD_REACTORS
330
7BC
102
}
330
7BC
100
AcDbScale
 70
     0
300
1:20
140
1.0
141
20.0
290
     0
  0
SCALE
  5
7C5
102
{ACAD_REACTORS
330
7BC
102
}
330
7BC
100
AcDbScale
 70
     0
300
1:30
140
1.0
141
30.0
290
     0
  0
SCALE
  5
7C6
102
{ACAD_REACTORS
330
7BC
102
}
330
7BC
100
AcDbScale
 70
     0
300
1:40
140
1.0
141
40.0
290
     0
  0
SCALE
  5
7C7
102
{ACAD_REACTORS
330
7BC
102
}
330
7BC
100
AcDbScale
 70
     0
300
1:50
140
1.0
141
50.0
290
     0
  0
SCALE
  5
7C8
102
{ACAD_REACTORS
330
7BC
102
}
330
7BC
100
AcDbScale
 70
     0
300
1:100
140
1.0
141
100.0
290
     0
  0
SCALE
  5
7C9
102
{ACAD_REACTORS
330
7BC
102
}
330
7BC
100
AcDbScale
 70
     0
300
2:1
140
2.0
141
1.0
290
     0
  0
SCALE
  5
7CA
102
{ACAD_REACTORS
330
7BC
102
}
330
7BC
100
AcDbScale
 70
     0
300
4:1
140
4.0
141
1.0
290
     0
  0
SCALE
  5
7CB
102
{ACAD_REACTORS
330
7BC
102
}
330
7BC
100
AcDbScale
 70
     0
300
8:1
140
8.0
141
1.0
290
     0
  0
SCALE
  5
7CC
102
{ACAD_REACTORS
330
7BC
102
}
330
7BC
100
AcDbScale
 70
     0
300
10:1
140
10.0
141
1.0
290
     0
  0
SCALE
  5
7CD
102
{ACAD_REACTORS
330
7BC
102
}
330
7BC
100
AcDbScale
 70
     0
300
100:1
140
100.0
141
1.0
290
     0
  0
SCALE
  5
7CE
102
{ACAD_REACTORS
330
7BC
102
}
330
7BC
100
AcDbScale
 70
     0
300
1/128" = 1'-0"
140
0.0078125
141
12.0
290
     0
  0
SCALE
  5
7CF
102
{ACAD_REACTORS
330
7BC
102
}
330
7BC
100
AcDbScale
 70
     0
300
1/64" = 1'-0"
140
0.015625
141
12.0
290
     0
  0
SCALE
  5
7D0
102
{ACAD_REACTORS
330
7BC
102
}
330
7BC
100
AcDbScale
 70
     0
300
1/32" = 1'-0"
140
0.03125
141
12.0
290
     0
  0
SCALE
  5
7D1
102
{ACAD_REACTORS
330
7BC
102
}
330
7BC
100
AcDbScale
 70
     0
300
1/16" = 1'-0"
140
0.0625
141
12.0
290
     0
  0
SCALE
  5
7D2
102
{ACAD_REACTORS
330
7BC
102
}
330
7BC
100
AcDbScale
 70
     0
300
3/32" = 1'-0"
140
0.09375
141
12.0
290
     0
  0
SCALE
  5
7D3
102
{ACAD_REACTORS
330
7BC
102
}
330
7BC
100
AcDbScale
 70
     0
300
1/8" = 1'-0"
140
0.125
141
12.0
290
     0
  0
SCALE
  5
7D4
102
{ACAD_REACTORS
330
7BC
102
}
330
7BC
100
AcDbScale
 70
     0
300
3/16" = 1'-0"
140
0.1875
141
12.0
290
     0
  0
SCALE
  5
7D5
102
{ACAD_REACTORS
330
7BC
102
}
330
7BC
100
AcDbScale
 70
     0
300
1/4" = 1'-0"
140
0.25
141
12.0
290
     0
  0
SCALE
  5
7D6
102
{ACAD_REACTORS
330
7BC
102
}
330
7BC
100
AcDbScale
 70
     0
300
3/8" = 1'-0"
140
0.375
141
12.0
290
     0
  0
SCALE
  5
7D7
102
{ACAD_REACTORS
330
7BC
102
}
330
7BC
100
AcDbScale
 70
     0
300
1/2" = 1'-0"
140
0.5
141
12.0
290
     0
  0
SCALE
  5
7D8
102
{ACAD_REACTORS
330
7BC
102
}
330
7BC
100
AcDbScale
 70
     0
300
3/4" = 1'-0"
140
0.75
141
12.0
290
     0
  0
SCALE
  5
7D9
102
{ACAD_REACTORS
330
7BC
102
}
330
7BC
100
AcDbScale
 70
     0
300
1" = 1'-0"
140
1.0
141
12.0
290
     0
  0
SCALE
  5
7DA
102
{ACAD_REACTORS
330
7BC
102
}
330
7BC
100
AcDbScale
 70
     0
300
1-1/2" = 1'-0"
140
1.5
141
12.0
290
     0
  0
SCALE
  5
7DB
102
{ACAD_REACTORS
330
7BC
102
}
330
7BC
100
AcDbScale
 70
     0
300
3" = 1'-0"
140
3.0
141
12.0
290
     0
  0
SCALE
  5
7DC
102
{ACAD_REACTORS
330
7BC
102
}
330
7BC
100
AcDbScale
 70
     0
300
6" = 1'-0"
140
6.0
141
12.0
290
     0
  0
SCALE
  5
7DD
102
{ACAD_REACTORS
330
7BC
102
}
330
7BC
100
AcDbScale
 70
     0
300
1'-0" = 1'-0"
140
12.0
141
12.0
290
     0
  0
TABLESTYLE
  5
732
102
{ACAD_XDICTIONARY
360
80C
102
}
102
{ACAD_REACTORS
330
731
102
}
330
731
100
AcDbTableStyle
  3
Standard
 70
     0
 71
     0
 40
0.06
 41
0.06
280
     0
281
     0
  7
STANDARD
140
0.18
170
     2
 62
     0
 63
     7
283
     0
274
    -2
284
     1
 64
     0
275
    -2
285
     1
 65
     0
276
    -2
286
     1
 66
     0
277
    -2
287
     1
 67
     0
278
    -2
288
     1
 68
     0
279
    -2
289
     1
 69
     0
  7
STANDARD
140
0.25
170
     5
 62
     0
 63
     7
283
     0
274
    -2
284
     1
 64
     0
275
    -2
285
     1
 65
     0
276
    -2
286
     1
 66
     0
277
    -2
287
     1
 67
     0
278
    -2
288
     1
 68
     0
279
    -2
289
     1
 69
     0
  7
STANDARD
140
0.18
170
     5
 62
     0
 63
     7
283
     0
274
    -2
284
     1
 64
     0
275
    -2
285
     1
 65
     0
276
    -2
286
     1
 66
     0
277
    -2
287
     1
 67
     0
278
    -2
288
     1
 68
     0
279
    -2
289
     1
 69
     0
  0
VISUALSTYLE
  5
795
102
{ACAD_REACTORS
330
78F
102
}
330
78F
100
AcDbVisualStyle
  2
2dWireframe
 70
     4
 71
     0
 72
     2
 73
     0
 90
        0
 40
-0.6
 41
-30.0
 62
     5
 63
     7
 74
     1
 91
        4
 64
     7
 65
   257
 75
     1
175
     1
 42
1.0
 92
        0
 66
   257
 43
1.0
 76
     1
 77
     6
 78
     2
 67
     7
 79
     5
170
     0
171
     0
290
     0
174
     0
 93
        1
 44
0.0
173
     0
291
     0
 45
0.0
1001
ACAD
1000
AcDbSavedByObjectVersion
1070
     0
  0
VISUALSTYLE
  5
797
102
{ACAD_REACTORS
330
78F
102
}
330
78F
100
AcDbVisualStyle
  2
3D Hidden
 70
     6
 71
     1
 72
     2
 73
     2
 90
        0
 40
-0.6
 41
-30.0
 62
     5
 63
     7
 74
     2
 91
        2
 64
     7
 65
   257
 75
     2
175
     1
 42
40.0
 92
        0
 66
   257
 43
1.0
 76
     1
 77
     6
 78
     2
 67
     7
 79
     3
170
     0
171
     0
290
     0
174
     0
 93
        1
 44
0.0
173
     0
291
     0
 45
0.0
1001
ACAD
1000
AcDbSavedByObjectVersion
1070
     0
  0
VISUALSTYLE
  5
796
102
{ACAD_REACTORS
330
78F
102
}
330
78F
100
AcDbVisualStyle
  2
3dWireframe
 70
     5
 71
     0
 72
     2
 73
     0
 90
        0
 40
-0.6
 41
-30.0
 62
     5
 63
     7
 74
     1
 91
        4
 64
     7
 65
   257
 75
     1
175
     1
 42
1.0
 92
        0
 66
   257
 43
1.0
 76
     1
 77
     6
 78
     2
 67
     7
 79
     5
170
     0
171
     0
290
     0
174
     0
 93
        1
 44
0.0
173
     0
291
     0
 45
0.0
1001
ACAD
1000
AcDbSavedByObjectVersion
1070
     0
  0
VISUALSTYLE
  5
794
102
{ACAD_REACTORS
330
78F
102
}
330
78F
100
AcDbVisualStyle
  2
Basic
 70
     7
 71
     1
 72
     0
 73
     1
 90
        0
 40
-0.6
 41
-30.0
 62
     5
 63
     7
 74
     0
 91
        4
 64
     7
 65
   257
 75
     1
175
     1
 42
1.0
 92
        8
 66
     7
 43
1.0
 76
     1
 77
     6
 78
     2
 67
     7
 79
     5
170
     0
171
     0
290
     0
174
     0
 93
        1
 44
0.0
173
     0
291
     1
 45
0.0
1001
ACAD
1000
AcDbSavedByObjectVersion
1070
     0
  0
VISUALSTYLE
  5
79B
102
{ACAD_REACTORS
330
78F
102
}
330
78F
100
AcDbVisualStyle
  2
Brighten
 70
    12
 71
     2
 72
     2
 73
     0
 90
        0
 40
-0.6
 41
-30.0
 62
     5
 63
     7
 74
     1
 91
        4
 64
     7
 65
   257
 75
     1
175
     1
 42
1.0
 92
        8
 66
     7
 43
1.0
 76
     1
 77
     6
 78
     2
 67
     7
 79
     5
170
     0
171
     0
290
     0
174
     0
 93
        1
 44
50.0
173
     0
291
     1
 45
0.0
1001
ACAD
1000
AcDbSavedByObjectVersion
1070
     0
  0
VISUALSTYLE
  5
79F
102
{ACAD_REACTORS
330
78F
102
}
330
78F
100
AcDbVisualStyle
  2
ColorChange
 70
    16
 71
     2
 72
     2
 73
     3
 90
        0
 40
-0.6
 41
-30.0
 62
     5
 63
     8
 74
     1
 91
        4
 64
     7
 65
   257
 75
     1
175
     1
 42
1.0
 92
        8
 66
     8
 43
1.0
 76
     1
 77
     6
 78
     2
 67
     7
 79
     5
170
     0
171
     0
290
     0
174
     0
 93
        1
 44
0.0
173
     0
291
     1
 45
0.0
1001
ACAD
1000
AcDbSavedByObjectVersion
1070
     0
  0
VISUALSTYLE
  5
798
102
{ACAD_REACTORS
330
78F
102
}
330
78F
100
AcDbVisualStyle
  2
Conceptual
 70
     9
 71
     3
 72
     2
 73
     0
 90
        0
 40
-0.6
 41
-30.0
 62
     5
 63
     7
 74
     2
 91
        2
 64
     7
 65
   257
 75
     1
175
     1
 42
40.0
 92
        8
 66
     7
 43
1.0
 76
     1
 77
     6
 78
     2
 67
     7
 79
     3
170
     0
171
     0
290
     0
174
     0
 93
        1
 44
0.0
173
     0
291
     0
 45
0.0
1001
ACAD
1000
AcDbSavedByObjectVersion
1070
     0
  0
VISUALSTYLE
  5
79A
102
{ACAD_REACTORS
330
78F
102
}
330
78F
100
AcDbVisualStyle
  2
Dim
 70
    11
 71
     2
 72
     2
 73
     0
 90
        0
 40
-0.6
 41
-30.0
 62
     5
 63
     7
 74
     1
 91
        4
 64
     7
 65
   257
 75
     1
175
     1
 42
1.0
 92
        8
 66
     7
 43
1.0
 76
     1
 77
     6
 78
     2
 67
     7
 79
     5
170
     0
171
     0
290
     0
174
     0
 93
        1
 44
-50.0
173
     0
291
     1
 45
0.0
1001
ACAD
1000
AcDbSavedByObjectVersion
1070
     0
  0
VISUALSTYLE
  5
79E
102
{ACAD_REACTORS
330
78F
102
}
330
78F
100
AcDbVisualStyle
  2
Facepattern
 70
    15
 71
     2
 72
     2
 73
     0
 90
        0
 40
-0.6
 41
-30.0
 62
     5
 63
     7
 74
     1
 91
        4
 64
     7
 65
   257
 75
     1
175
     1
 42
1.0
 92
        8
 66
     7
 43
1.0
 76
     1
 77
     6
 78
     2
 67
     7
 79
     5
170
     0
171
     0
290
     0
174
     0
 93
        1
 44
0.0
173
     0
291
     1
 45
0.0
1001
ACAD
1000
AcDbSavedByObjectVersion
1070
     0
  0
VISUALSTYLE
  5
790
102
{ACAD_REACTORS
330
78F
102
}
330
78F
100
AcDbVisualStyle
  2
Flat
 70
     0
 71
     2
 72
     1
 73
     1
 90
        2
 40
-0.6
 41
30.0
 62
     5
 63
     7
 74
     0
 91
        4
 64
     7
 65
   257
 75
     1
175
     1
 42
1.0
 92
        8
 66
     7
 43
1.0
 76
     1
 77
     6
 78
     2
 67
     7
 79
     5
170
     0
171
     0
290
     0
174
     0
 93
       13
 44
0.0
173
     0
291
     1
 45
0.0
1001
ACAD
1000
AcDbSavedByObjectVersion
1070
     0
  0
VISUALSTYLE
  5
791
102
{ACAD_REACTORS
330
78F
102
}
330
78F
100
AcDbVisualStyle
  2
FlatWithEdges
 70
     1
 71
     2
 72
     1
 73
     1
 90
        2
 40
-0.6
 41
30.0
 62
     5
 63
     7
 74
     1
 91
        4
 64
     7
 65
   257
 75
     1
175
     1
 42
1.0
 92
        0
 66
   257
 43
1.0
 76
     1
 77
     6
 78
     2
 67
     7
 79
     5
170
     0
171
     0
290
     0
174
     0
 93
       13
 44
0.0
173
     0
291
     1
 45
0.0
1001
ACAD
1000
AcDbSavedByObjectVersion
1070
     0
  0
VISUALSTYLE
  5
792
102
{ACAD_REACTORS
330
78F
102
}
330
78F
100
AcDbVisualStyle
  2
Gouraud
 70
     2
 71
     2
 72
     2
 73
     1
 90
        2
 40
-0.6
 41
30.0
 62
     5
 63
     7
 74
     0
 91
        4
 64
     7
 65
   257
 75
     1
175
     1
 42
1.0
 92
        0
 66
     7
 43
1.0
 76
     1
 77
     6
 78
     2
 67
     7
 79
     5
170
     0
171
     0
290
     0
174
     0
 93
       13
 44
0.0
173
     0
291
     1
 45
0.0
1001
ACAD
1000
AcDbSavedByObjectVersion
1070
     0
  0
VISUALSTYLE
  5
793
102
{ACAD_REACTORS
330
78F
102
}
330
78F
100
AcDbVisualStyle
  2
GouraudWithEdges
 70
     3
 71
     2
 72
     2
 73
     1
 90
        2
 40
-0.6
 41
30.0
 62
     5
 63
     7
 74
     1
 91
        4
 64
     7
 65
   257
 75
     1
175
     1
 42
1.0
 92
        0
 66
   257
 43
1.0
 76
     1
 77
     6
 78
     2
 67
     7
 79
     5
170
     0
171
     0
290
     0
174
     0
 93
       13
 44
0.0
173
     0
291
     1
 45
0.0
1001
ACAD
1000
AcDbSavedByObjectVersion
1070
     0
  0
VISUALSTYLE
  5
79D
102
{ACAD_REACTORS
330
78F
102
}
330
78F
100
AcDbVisualStyle
  2
Linepattern
 70
    14
 71
     2
 72
     2
 73
     0
 90
        0
 40
-0.6
 41
-30.0
 62
     5
 63
     7
 74
     1
 91
        4
 64
     7
 65
   257
 75
     7
175
     7
 42
1.0
 92
        8
 66
     7
 43
1.0
 76
     1
 77
     6
 78
     2
 67
     7
 79
     5
170
     0
171
     0
290
     0
174
     0
 93
        1
 44
0.0
173
     0
291
     1
 45
0.0
1001
ACAD
1000
AcDbSavedByObjectVersion
1070
     0
  0
VISUALSTYLE
  5
799
102
{ACAD_REACTORS
330
78F
102
}
330
78F
100
AcDbVisualStyle
  2
Realistic
 70
     8
 71
     2
 72
     2
 73
     0
 90
        0
 40
-0.6
 41
-30.0
 62
     5
 63
     7
 74
     1
 91
        0
 64
     7
 65
   257
 75
     1
175
     1
 42
1.0
 92
        8
 66
     8
 43
1.0
 76
     1
 77
     6
 78
     2
 67
     7
 79
     5
170
     0
171
     0
290
     0
174
     0
 93
       13
 44
0.0
173
     0
291
     0
 45
0.0
1001
ACAD
1000
AcDbSavedByObjectVersion
1070
     0
  0
VISUALSTYLE
  5
79C
102
{ACAD_REACTORS
330
78F
102
}
330
78F
100
AcDbVisualStyle
  2
Thicken
 70
    13
 71
     2
 72
     2
 73
     0
 90
        0
 40
-0.6
 41
-30.0
 62
     5
 63
     7
 74
     1
 91
        4
 64
     7
 65
   257
 75
     1
175
     1
 42
1.0
 92
       12
 66
     7
 43
1.0
 76
     1
 77
     6
 78
     2
 67
     7
 79
     5
170
     0
171
     0
290
     0
174
     0
 93
        1
 44
0.0
173
     0
291
     1
 45
0.0
1001
ACAD
1000
AcDbSavedByObjectVersion
1070
     0
  0
DICTIONARYVAR
  5
811
102
{ACAD_REACTORS
330
72C
102
}
330
72C
100
DictionaryVariables
280
     0
  1
1:1
  0
DICTIONARYVAR
  5
80F
102
{ACAD_REACTORS
330
72C
102
}
330
72C
100
DictionaryVariables
280
     0
  1
STANDARD
  0
DICTIONARYVAR
  5
741
102
{ACAD_REACTORS
330
72C
102
}
330
72C
100
DictionaryVariables
280
     0
  1
STANDARD
  0
DICTIONARYVAR
  5
72D
102
{ACAD_REACTORS
330
72C
102
}
330
72C
100
DictionaryVariables
280
     0
  1
1
  0
DICTIONARYVAR
  5
826
102
{ACAD_REACTORS
330
72C
102
}
330
72C
100
DictionaryVariables
280
     0
  1
0
  0
DICTIONARYVAR
  5
812
102
{ACAD_REACTORS
330
72C
102
}
330
72C
100
DictionaryVariables
280
     0
  1
0
  0
DICTIONARYVAR
  5
810
102
{ACAD_REACTORS
330
72C
102
}
330
72C
100
DictionaryVariables
280
     0
  1
0
  0
DICTIONARYVAR
  5
825
102
{ACAD_REACTORS
330
72C
102
}
330
72C
100
DictionaryVariables
280
     0
  1
127
  0
XRECORD
  5
6B2
102
{ACAD_REACTORS
330
6B0
102
}
330
6B0
100
AcDbXrecord
280
     1
330
0
330
0
330
4EC
330
15A
330
171
330
1A3
330
1A4
330
1ED
330
1EE
330
22C
330
3A8
330
3C8
  0
DICTIONARY
  5
829
330
1D
100
AcDbDictionary
280
     1
281
     1
  3
ACAD_XREC_ROUNDTRIP
360
82A
  0
DICTIONARY
  5
82B
330
21
100
AcDbDictionary
280
     1
281
     1
  3
ACAD_XREC_ROUNDTRIP
360
82C
  0
DICTIONARY
  5
830
330
78D
100
AcDbDictionary
280
     1
281
     1
  3
ACAD_XREC_ROUNDTRIP
360
831
  0
DICTIONARY
  5
82E
330
78C
100
AcDbDictionary
280
     1
281
     1
  3
ACAD_XREC_ROUNDTRIP
360
82F
  0
DICTIONARY
  5
832
330
78E
100
AcDbDictionary
280
     1
281
     1
  3
ACAD_XREC_ROUNDTRIP
360
833
  0
DICTIONARY
  5
80C
330
732
100
AcDbDictionary
280
     1
281
     1
  3
ACAD_ROUNDTRIP_2008_TABLESTYLE_CELLSTYLEMAP
360
827
  3
ACAD_XREC_ROUNDTRIP
360
82D
  0
XRECORD
  5
82A
102
{ACAD_REACTORS
330
829
102
}
330
829
100
AcDbXrecord
280
     1
102
SHADEPLOT
 70
     0
102
SHADEPLOTRESLEVEL
 70
     2
102
SHADEPLOTCUSTOMDPI
 70
   300
  0
XRECORD
  5
82C
102
{ACAD_REACTORS
330
82B
102
}
330
82B
100
AcDbXrecord
280
     1
102
SHADEPLOT
 70
     0
102
SHADEPLOTRESLEVEL
 70
     2
102
SHADEPLOTCUSTOMDPI
 70
   300
  0
XRECORD
  5
831
102
{ACAD_REACTORS
330
830
102
}
330
830
100
AcDbXrecord
280
     1
102
MATERIAL
148
0.0
149
0.0
149
0.0
 93
        0
 94
       63
282
     0
 72
     1
 77
     1
171
     1
175
     1
179
     1
273
     0
  0
XRECORD
  5
82F
102
{ACAD_REACTORS
330
82E
102
}
330
82E
100
AcDbXrecord
280
     1
102
MATERIAL
148
0.0
149
0.0
149
0.0
 93
        0
 94
       63
282
     0
 72
     1
 77
     1
171
     1
175
     1
179
     1
273
     0
  0
XRECORD
  5
833
102
{ACAD_REACTORS
330
832
102
}
330
832
100
AcDbXrecord
280
     1
102
MATERIAL
148
0.0
149
0.0
149
0.0
 93
        0
 94
       63
282
     0
 72
     1
 77
     1
171
     1
175
     1
179
     1
273
     0
  0
CELLSTYLEMAP
  5
827
102
{ACAD_REACTORS
330
80C
102
}
330
80C
100
AcDbCellStyleMap
 90
        3
300
CELLSTYLE
  1
TABLEFORMAT_BEGIN
 90
        5
170
     1
 91
        0
 92
    32768
 62
   257
 93
        1
300
CONTENTFORMAT
  1
CONTENTFORMAT_BEGIN
 90
        0
 91
        0
 92
        4
 93
        0
300

 40
0.0
140
1.0
 94
        5
 62
     0
340
11
144
0.25
309
CONTENTFORMAT_END
171
     0
 94
        6
 95
        1
302
GRIDFORMAT
  1
GRIDFORMAT_BEGIN
 90
        0
 91
        1
 62
     0
 92
       -2
340
0
 93
        0
 40
0.045
309
GRIDFORMAT_END
 95
        2
302
GRIDFORMAT
  1
GRIDFORMAT_BEGIN
 90
        0
 91
        1
 62
     0
 92
       -2
340
0
 93
        0
 40
0.045
309
GRIDFORMAT_END
 95
        4
302
GRIDFORMAT
  1
GRIDFORMAT_BEGIN
 90
        0
 91
        1
 62
     0
 92
       -2
340
0
 93
        0
 40
0.045
309
GRIDFORMAT_END
 95
        8
302
GRIDFORMAT
  1
GRIDFORMAT_BEGIN
 90
        0
 91
        1
 62
     0
 92
       -2
340
0
 93
        0
 40
0.045
309
GRIDFORMAT_END
 95
       16
302
GRIDFORMAT
  1
GRIDFORMAT_BEGIN
 90
        0
 91
        1
 62
     0
 92
       -2
340
0
 93
        0
 40
0.045
309
GRIDFORMAT_END
 95
       32
302
GRIDFORMAT
  1
GRIDFORMAT_BEGIN
 90
        0
 91
        1
 62
     0
 92
       -2
340
0
 93
        0
 40
0.045
309
GRIDFORMAT_END
309
TABLEFORMAT_END
  1
CELLSTYLE_BEGIN
 90
        1
 91
        1
300
_TITLE
309
CELLSTYLE_END
300
CELLSTYLE
  1
TABLEFORMAT_BEGIN
 90
        5
170
     1
 91
        0
 92
        0
 62
   257
 93
        1
300
CONTENTFORMAT
  1
CONTENTFORMAT_BEGIN
 90
        0
 91
        0
 92
        4
 93
        0
300

 40
0.0
140
1.0
 94
        5
 62
     0
340
11
144
0.18
309
CONTENTFORMAT_END
171
     0
 94
        6
 95
        1
302
GRIDFORMAT
  1
GRIDFORMAT_BEGIN
 90
        0
 91
        1
 62
     0
 92
       -2
340
0
 93
        0
 40
0.045
309
GRIDFORMAT_END
 95
        2
302
GRIDFORMAT
  1
GRIDFORMAT_BEGIN
 90
        0
 91
        1
 62
     0
 92
       -2
340
0
 93
        0
 40
0.045
309
GRIDFORMAT_END
 95
        4
302
GRIDFORMAT
  1
GRIDFORMAT_BEGIN
 90
        0
 91
        1
 62
     0
 92
       -2
340
0
 93
        0
 40
0.045
309
GRIDFORMAT_END
 95
        8
302
GRIDFORMAT
  1
GRIDFORMAT_BEGIN
 90
        0
 91
        1
 62
     0
 92
       -2
340
0
 93
        0
 40
0.045
309
GRIDFORMAT_END
 95
       16
302
GRIDFORMAT
  1
GRIDFORMAT_BEGIN
 90
        0
 91
        1
 62
     0
 92
       -2
340
0
 93
        0
 40
0.045
309
GRIDFORMAT_END
 95
       32
302
GRIDFORMAT
  1
GRIDFORMAT_BEGIN
 90
        0
 91
        1
 62
     0
 92
       -2
340
0
 93
        0
 40
0.045
309
GRIDFORMAT_END
309
TABLEFORMAT_END
  1
CELLSTYLE_BEGIN
 90
        2
 91
        1
300
_HEADER
309
CELLSTYLE_END
300
CELLSTYLE
  1
TABLEFORMAT_BEGIN
 90
        5
170
     1
 91
        0
 92
        0
 62
   257
 93
        1
300
CONTENTFORMAT
  1
CONTENTFORMAT_BEGIN
 90
        0
 91
        0
 92
        4
 93
        0
300

 40
0.0
140
1.0
 94
        2
 62
     0
340
11
144
0.18
309
CONTENTFORMAT_END
171
     0
 94
        6
 95
        1
302
GRIDFORMAT
  1
GRIDFORMAT_BEGIN
 90
        0
 91
        1
 62
     0
 92
       -2
340
0
 93
        0
 40
0.045
309
GRIDFORMAT_END
 95
        2
302
GRIDFORMAT
  1
GRIDFORMAT_BEGIN
 90
        0
 91
        1
 62
     0
 92
       -2
340
0
 93
        0
 40
0.045
309
GRIDFORMAT_END
 95
        4
302
GRIDFORMAT
  1
GRIDFORMAT_BEGIN
 90
        0
 91
        1
 62
     0
 92
       -2
340
0
 93
        0
 40
0.045
309
GRIDFORMAT_END
 95
        8
302
GRIDFORMAT
  1
GRIDFORMAT_BEGIN
 90
        0
 91
        1
 62
     0
 92
       -2
340
0
 93
        0
 40
0.045
309
GRIDFORMAT_END
 95
       16
302
GRIDFORMAT
  1
GRIDFORMAT_BEGIN
 90
        0
 91
        1
 62
     0
 92
       -2
340
0
 93
        0
 40
0.045
309
GRIDFORMAT_END
 95
       32
302
GRIDFORMAT
  1
GRIDFORMAT_BEGIN
 90
        0
 91
        1
 62
     0
 92
       -2
340
0
 93
        0
 40
0.045
309
GRIDFORMAT_END
309
TABLEFORMAT_END
  1
CELLSTYLE_BEGIN
 90
        3
 91
        2
300
_DATA
309
CELLSTYLE_END
  0
XRECORD
  5
82D
102
{ACAD_REACTORS
330
80C
102
}
330
80C
100
AcDbXrecord
280
     1
102
ACAD_ROUNDTRIP_PRE2007_TABLESTYLE
 90
        4
 91
        0
  1

 92
        4
 93
        0
  2

 94
        4
 95
        0
  3

  0
ENDSEC
  0
EOF
